<svg xmlns="http://www.w3.org/2000/svg" xml:space="preserve" viewBox="0 0 2041.1 1920"><style>.st0{display:none}.st1{fill:none;stroke:#000;stroke-width:2;stroke-linecap:round;stroke-linejoin:round;stroke-miterlimit:10}.st1,.st2{display:inline}.st3{font-family:&quot;MuseoSans-300&quot;}.st4{font-size:50px}.st5,.st6{fill:none;stroke:#000;stroke-width:3.0445;stroke-linecap:round;stroke-linejoin:round;stroke-miterlimit:10}.st6{stroke-width:2}</style><font horiz-adv-x="1000"><font-face font-family="MuseoSans-300" underline-position="-100" underline-thickness="50"/><glyph d="M530 0h73L345 703h-74L13 0h73l80 224h283M309 630s15-58 27-91l92-255H186l94 255c12 33 27 91 27 91z" horiz-adv-x="616" unicode="A"/><glyph d="M10 0h73l131 324h170V0h414v62H453v261h267v62H453v256h327v62H299m44-62h41V384H239z" horiz-adv-x="853" unicode="Æ"/><glyph d="M530 0h73L345 703h-74L13 0h73l80 224h283M309 630s15-58 27-91l92-255H186l94 255c12 33 27 91 27 91m-31 122h62l86 119h-79z" horiz-adv-x="616" unicode="Á"/><glyph d="M530 0h73L345 703h-74L13 0h73l80 224h283M309 630s15-58 27-91l92-255H186l94 255c12 33 27 91 27 91m1 119c60 0 116 36 116 107v15h-55v-13c0-44-30-62-61-62s-60 18-60 62v13h-55v-15c0-71 56-107 115-107" horiz-adv-x="616" unicode="Ă"/><glyph d="M530 0h73L345 703h-74L13 0h73l80 224h283M309 630s15-58 27-91l92-255H186l94 255c12 33 27 91 27 91M187 752h66l54 81h2l54-81h66l-84 119h-75z" horiz-adv-x="616" unicode="Â"/><glyph d="M530 0h73L345 703h-74L13 0h73l80 224h283M309 630s15-58 27-91l92-255H186l94 255c12 33 27 91 27 91m46 155h62v86h-62m-151-86h61v86h-61z" horiz-adv-x="616" unicode="Ä"/><glyph d="M530 0h73L345 703h-74L13 0h73l80 224h283M309 630s15-58 27-91l92-255H186l94 255c12 33 27 91 27 91m-29 122h62l-69 119h-79z" horiz-adv-x="616" unicode="À"/><glyph d="M530 0h73L345 703h-74L13 0h73l80 224h283M309 630s15-58 27-91l92-255H186l94 255c12 33 27 91 27 91M185 785h246v55H185z" horiz-adv-x="616" unicode="Ā"/><glyph d="M467-113c0-85 110-92 110-92l15 56s-62 5-62 50c0 40 51 82 73 99L345 703h-74L13 0h73l80 224h283L531-4c-25-20-64-60-64-109M309 630s15-58 27-91l92-255H186l94 255c12 33 27 91 27 91z" horiz-adv-x="616" unicode="Ą"/><glyph d="M530 0h73L345 703h-74L13 0h73l80 224h283M309 630s15-58 27-91l92-255H186l94 255c12 33 27 91 27 91m1 111c41 0 76 29 76 71s-35 71-76 71-75-29-75-71 34-71 75-71m0 38c-19 0-32 14-32 33 0 20 13 34 32 34 20 0 33-14 33-34 0-19-13-33-33-33" horiz-adv-x="616" unicode="Å"/><glyph d="M530 0h73L345 703h-74L13 0h73l80 224h283M309 630s15-58 27-91l92-255H186l94 255c12 33 27 91 27 91M152 755h55c0 26 6 68 39 68 45 0 59-71 126-71 61 0 92 40 92 117h-54c0-26-7-69-40-69-45 0-59 72-126 72-61 0-92-40-92-117" horiz-adv-x="616" unicode="Ã"/><glyph d="M102 0h248c118 0 211 72 211 197 0 85-46 154-118 174v2c54 27 89 80 89 153 0 110-79 177-190 177H102m69-305v243h170c75 0 120-48 120-120 0-73-48-123-119-123M171 62v276h179c82 0 139-55 139-139S436 62 351 62z" horiz-adv-x="626" unicode="B"/><glyph d="M55 356C55 151 203-12 411-12 584-12 680 97 680 97l-40 49s-86-94-228-94c-167 0-285 137-285 305 0 166 118 294 283 294 132 0 214-78 214-78l37 51s-85 91-253 91C207 715 55 560 55 356" horiz-adv-x="728" unicode="C"/><glyph d="M55 356C55 151 203-12 411-12 584-12 680 97 680 97l-40 49s-86-94-228-94c-167 0-285 137-285 305 0 166 118 294 283 294 132 0 214-78 214-78l37 51s-85 91-253 91C207 715 55 560 55 356m314 396h62l86 119h-79z" horiz-adv-x="728" unicode="Ć"/><glyph d="M55 356C55 151 203-12 411-12 584-12 680 97 680 97l-40 49s-86-94-228-94c-167 0-285 137-285 305 0 166 118 294 283 294 132 0 214-78 214-78l37 51s-85 91-253 91C207 715 55 560 55 356m309 396h75l84 119h-66l-54-80h-2l-54 80h-66z" horiz-adv-x="728" unicode="Č"/><glyph d="M56 356C56 162 188 6 378-10l-19-81s7 1 15 1c35 0 57-12 57-34 0-27-25-34-51-34-23 0-42 6-42 6v-48s20-5 50-5c49 0 96 21 96 79 0 40-30 65-70 71l8 43C588-8 681 97 681 97l-40 49s-86-94-228-94c-167 0-285 137-285 305 0 166 118 294 283 294 132 0 214-78 214-78l37 51s-85 91-253 91C208 715 56 560 56 356" horiz-adv-x="729" unicode="Ç"/><glyph d="M55 356C55 151 203-12 411-12 584-12 680 97 680 97l-40 49s-86-94-228-94c-167 0-285 137-285 305 0 166 118 294 283 294 132 0 214-78 214-78l37 51s-85 91-253 91C207 715 55 560 55 356m226 396h66l54 81h2l54-81h66l-84 119h-75z" horiz-adv-x="728" unicode="Ĉ"/><glyph d="M55 356C55 151 203-12 411-12 584-12 680 97 680 97l-40 49s-86-94-228-94c-167 0-285 137-285 305 0 166 118 294 283 294 132 0 214-78 214-78l37 51s-85 91-253 91C207 715 55 560 55 356m314 430h65v85h-65z" horiz-adv-x="728" unicode="Ċ"/><glyph d="M102 0h227c211 0 353 128 353 352 0 222-142 351-353 351H102m69-641v579h151c172 0 288-102 288-289 0-188-115-290-288-290z" horiz-adv-x="740" unicode="D"/><glyph d="M102 0h227c211 0 353 128 353 352 0 222-142 351-353 351H102m69-641v579h151c172 0 288-102 288-289 0-188-115-290-288-290m-17 690h75l84 119h-66l-54-80h-2l-54 80h-66z" horiz-adv-x="740" unicode="Ď"/><glyph d="M58 323h60V0h226c212 0 353 128 353 352 0 222-141 351-353 351H118V383H58M187 62v261h167v60H187v258h150c173 0 288-102 288-289 0-188-115-290-288-290z" horiz-adv-x="754" unicode="Đ"/><glyph d="M102 0h414v62H171v261h267v62H171v256h327v62H102z" horiz-adv-x="571" unicode="E"/><glyph d="M102 0h414v62H171v261h267v62H171v256h327v62H102m177 49h62l86 119h-79z" horiz-adv-x="571" unicode="É"/><glyph d="M102 0h414v62H171v261h267v62H171v256h327v62H102m209 46c60 0 116 36 116 107v15h-55v-13c0-44-30-62-61-62s-60 18-60 62v13h-55v-15c0-71 56-107 115-107" horiz-adv-x="571" unicode="Ĕ"/><glyph d="M102 0h414v62H171v261h267v62H171v256h327v62H102m172 49h75l84 119h-66l-54-80h-2l-54 80h-66z" horiz-adv-x="571" unicode="Ě"/><glyph d="M102 0h414v62H171v261h267v62H171v256h327v62H102m89 49h66l54 81h2l54-81h66l-84 119h-75z" horiz-adv-x="571" unicode="Ê"/><glyph d="M102 0h414v62H171v261h267v62H171v256h327v62H102m255 82h62v86h-62m-151-86h61v86h-61z" horiz-adv-x="571" unicode="Ë"/><glyph d="M102 0h414v62H171v261h267v62H171v256h327v62H102m177 83h65v85h-65z" horiz-adv-x="571" unicode="Ė"/><glyph d="M102 0h414v62H171v261h267v62H171v256h327v62H102m179 49h62l-69 119h-79z" horiz-adv-x="571" unicode="È"/><glyph d="M102 0h414v62H171v261h267v62H171v256h327v62H102m87 82h246v55H189z" horiz-adv-x="571" unicode="Ē"/><glyph d="M102 0h69v506c0 37-6 95-6 95h2s34-60 58-95L581 5c-3-109-77-145-138-145v-65c99 0 208 51 208 217v691h-69V197c0-37 6-95 6-95h-2s-34 60-58 95L169 703h-67z" horiz-adv-x="753" unicode="Ŋ"/><glyph d="M102 0h348v-2c-24-18-70-58-70-111 0-85 110-92 110-92l15 56s-62 5-62 50c0 40 51 82 73 99v62H171v261h267v62H171v256h327v62H102z" horiz-adv-x="571" unicode="Ę"/><glyph d="M58 323h60V0h226c212 0 353 128 353 352 0 222-141 351-353 351H118V383H58M187 62v261h167v60H187v258h150c173 0 288-102 288-289 0-188-115-290-288-290z" horiz-adv-x="754" unicode="Ð"/><glyph d="M41 266h62C138 103 271-12 441-12c60 0 106 15 106 15l-16 65s-39-14-89-14c-131 0-233 87-264 212h272l10 51H167c-3 26-3 56 1 81h307l10 51H179c34 119 133 200 261 200 42 0 79-11 79-11l17 65s-41 12-95 12c-165 0-297-111-336-266H41v-51h55c-3-24-3-63 0-81H41z" horiz-adv-x="590" unicode="€"/><glyph d="M102 0h69v315h258v62H171v264h301v62H102z" horiz-adv-x="514" unicode="F"/><glyph d="M55 352C55 143 207-12 399-12c148 0 229 95 229 95h2s-1-15-1-30V0h64v336H507v-62h120V155S543 52 406 52c-160 0-279 128-279 301 0 167 115 298 285 298 128 0 210-70 210-70l37 52s-87 82-250 82C207 715 55 555 55 352" horiz-adv-x="758" unicode="G"/><glyph d="M55 352C55 143 207-12 399-12c148 0 229 95 229 95h2s-1-15-1-30V0h64v336H507v-62h120V155S543 52 406 52c-160 0-279 128-279 301 0 167 115 298 285 298 128 0 210-70 210-70l37 52s-87 82-250 82C207 715 55 555 55 352m343 397c60 0 116 36 116 107v15h-55v-13c0-44-30-62-61-62s-60 18-60 62v13h-55v-15c0-71 56-107 115-107" horiz-adv-x="758" unicode="Ğ"/><glyph d="M55 352C55 143 207-12 399-12c148 0 229 95 229 95h2s-1-15-1-30V0h64v336H507v-62h120V155S543 52 406 52c-160 0-279 128-279 301 0 167 115 298 285 298 128 0 210-70 210-70l37 52s-87 82-250 82C207 715 55 555 55 352m222 400h66l54 81h2l54-81h66l-84 119h-75z" horiz-adv-x="758" unicode="Ĝ"/><glyph d="M55 352C55 143 207-12 399-12c148 0 229 95 229 95h2s-1-15-1-30V0h64v336H507v-62h120V155S543 52 406 52c-160 0-279 128-279 301 0 167 115 298 285 298 128 0 210-70 210-70l37 52s-87 82-250 82C207 715 55 555 55 352M366-63c8-22 11-41 11-58 0-26-7-51-19-81h56c15 33 23 60 23 90 0 16-2 32-6 49z" horiz-adv-x="758" unicode="Ģ"/><glyph d="M55 352C55 143 207-12 399-12c148 0 229 95 229 95h2s-1-15-1-30V0h64v336H507v-62h120V155S543 52 406 52c-160 0-279 128-279 301 0 167 115 298 285 298 128 0 210-70 210-70l37 52s-87 82-250 82C207 715 55 555 55 352m311 434h65v85h-65z" horiz-adv-x="758" unicode="Ġ"/><glyph d="M102 0h69v321h408V0h69v703h-69V383H171v320h-69z" horiz-adv-x="750" unicode="H"/><glyph d="M125 0h70v321h404V0h70v512h65v54h-65v137h-70V566H195v137h-70V566H59v-54h66m70-129v129h404V383z" horiz-adv-x="794" unicode="Ħ"/><glyph d="M102 0h69v321h408V0h69v703h-69V383H171v320h-69m152 49h66l54 81h2l54-81h66l-84 119h-75z" horiz-adv-x="750" unicode="Ĥ"/><glyph d="M102 0h69v703h-69z" horiz-adv-x="273" unicode="I"/><glyph d="M272-5c99 0 216 38 216 233v475h-70V228c0-145-82-168-146-168M102 0h69v703h-69z" horiz-adv-x="582" unicode="Ĳ"/><glyph d="M102 0h69v703h-69m2 49h62l86 119h-79z" horiz-adv-x="273" unicode="Í"/><glyph d="M102 0h69v703h-69m35 46c60 0 116 36 116 107v15h-55v-13c0-44-30-62-61-62s-60 18-60 62v13H22v-15c0-71 56-107 115-107" horiz-adv-x="273" unicode="Ĭ"/><glyph d="M102 0h69v703h-69m-86 49h66l54 81h2l54-81h66l-84 119H99z" horiz-adv-x="273" unicode="Î"/><glyph d="M102 0h69v703h-69m80 82h62v86h-62M31 785h61v86H31z" horiz-adv-x="273" unicode="Ï"/><glyph d="M102 0h69v703h-69m3 83h65v85h-65z" horiz-adv-x="273" unicode="İ"/><glyph d="M102 0h69v703h-69m5 49h62l-69 119H21z" horiz-adv-x="273" unicode="Ì"/><glyph d="M102 0h69v703h-69m-88 82h246v55H14z" horiz-adv-x="273" unicode="Ī"/><glyph d="M43-113c0-85 110-92 110-92l16 56s-62 5-62 50c0 40 44 82 64 99v703h-69V-1C81-20 43-63 43-113" horiz-adv-x="273" unicode="Į"/><glyph d="M102 0h69v703h-69m-121 52h55c0 26 6 68 39 68 45 0 59-71 126-71 61 0 92 40 92 117h-54c0-26-7-69-40-69-45 0-59 72-126 72-61 0-92-40-92-117" horiz-adv-x="273" unicode="Ĩ"/><glyph d="M35 197C35 46 136-12 232-12c97 0 198 57 198 209v506H189v-62h172V197c0-109-66-145-128-145-64 0-129 39-129 147v26H35z" horiz-adv-x="524" unicode="J"/><glyph d="M35 197C35 46 136-12 232-12c97 0 198 57 198 209v506H189v-62h172V197c0-109-66-145-128-145-64 0-129 39-129 147v26H35m153 527h66l54 81h2l54-81h66l-84 119h-75z" horiz-adv-x="524" unicode="Ĵ"/><glyph d="M102 0h69v336h119L491 0h81L348 369v2l210 332h-79L290 398H171v305h-69z" horiz-adv-x="601" unicode="K"/><glyph d="M102 0h69v336h119L491 0h81L348 369v2l210 332h-79L290 398H171v305h-69M277-63c8-22 11-41 11-58 0-26-7-51-19-81h56c15 33 23 60 23 90 0 16-2 32-6 49z" horiz-adv-x="601" unicode="Ķ"/><glyph d="M102 0h395v62H171v641h-69z" horiz-adv-x="518" unicode="L"/><glyph d="M102 0h395v62H171v641h-69m2 49h62l86 119h-79z" horiz-adv-x="518" unicode="Ĺ"/><glyph d="M102 0h395v62H171v641h-69m161 0c8-22 11-41 11-58 0-26-7-51-19-81h56c15 33 23 60 23 90 0 16-2 32-6 49z" horiz-adv-x="518" unicode="Ľ"/><glyph d="M102 0h395v62H171v641h-69M272-63c8-22 11-41 11-58 0-26-7-51-19-81h56c15 33 23 60 23 90 0 16-2 32-6 49z" horiz-adv-x="518" unicode="Ļ"/><glyph d="M102 0h395v62H171v641h-69m196-371h77v80h-77z" horiz-adv-x="518" unicode="Ŀ"/><glyph d="m65 302 63 36V0h395v62H197v315l112 64v72l-112-65v255h-69V408l-63-36z" horiz-adv-x="544" unicode="Ł"/><glyph d="M80 0h69l39 492c3 38 2 100 2 100h2s22-65 38-100l165-361h65l165 361c16 36 37 98 37 98h2s-1-60 2-98L705 0h69l-56 703h-71L463 290c-16-36-35-86-35-86h-2s-18 50-34 86L208 703h-72z" horiz-adv-x="854" unicode="M"/><glyph d="M102 0h69v506c0 37-6 95-6 95h2s34-60 58-95L584 0h67v703h-69V197c0-37 6-95 6-95h-2s-34 60-58 95L169 703h-67z" horiz-adv-x="753" unicode="N"/><glyph d="M102 0h69v506c0 37-6 95-6 95h2s34-60 58-95L584 0h67v703h-69V197c0-37 6-95 6-95h-2s-34 60-58 95L169 703h-67m242 49h62l86 119h-79z" horiz-adv-x="753" unicode="Ń"/><glyph d="M102 0h69v506c0 37-6 95-6 95h2s34-60 58-95L584 0h67v703h-69V197c0-37 6-95 6-95h-2s-34 60-58 95L169 703h-67m237 49h75l84 119h-66l-54-80h-2l-54 80h-66z" horiz-adv-x="753" unicode="Ň"/><glyph d="M102 0h69v506c0 37-6 95-6 95h2s34-60 58-95L584 0h67v703h-69V197c0-37 6-95 6-95h-2s-34 60-58 95L169 703h-67M343-63c8-22 11-41 11-58 0-26-7-51-19-81h56c15 33 23 60 23 90 0 16-2 32-6 49z" horiz-adv-x="753" unicode="Ņ"/><glyph d="M102 0h69v506c0 37-6 95-6 95h2s34-60 58-95L584 0h67v703h-69V197c0-37 6-95 6-95h-2s-34 60-58 95L169 703h-67m119 52h55c0 26 6 68 39 68 45 0 59-71 126-71 61 0 92 40 92 117h-54c0-26-7-69-40-69-45 0-59 72-126 72-61 0-92-40-92-117" horiz-adv-x="753" unicode="Ñ"/><glyph d="M54 356C54 150 213-12 412-12s358 162 358 368c0 202-159 359-358 359S54 558 54 356m72 0c0 168 127 295 286 295 158 0 286-127 286-295 0-172-128-304-286-304-159 0-286 132-286 304" horiz-adv-x="824" unicode="O"/><glyph d="M55 352C55 148 205-10 413-10c41 0 89 10 120 10h364v62H553v261h266v62H553v256h326v62H532c-32 0-78 10-119 10-208 0-358-159-358-361m72 0c0 168 115 298 286 298 38 0 70-8 70-8V60s-32-7-70-7c-171 0-286 130-286 299" horiz-adv-x="953" unicode="Œ"/><glyph d="M54 356C54 150 213-12 412-12s358 162 358 368c0 202-159 359-358 359S54 558 54 356m72 0c0 168 127 295 286 295 158 0 286-127 286-295 0-172-128-304-286-304-159 0-286 132-286 304m253 396h62l86 119h-79z" horiz-adv-x="824" unicode="Ó"/><glyph d="M54 356C54 150 213-12 412-12s358 162 358 368c0 202-159 359-358 359S54 558 54 356m72 0c0 168 127 295 286 295 158 0 286-127 286-295 0-172-128-304-286-304-159 0-286 132-286 304m285 393c60 0 116 36 116 107v15h-55v-13c0-44-30-62-61-62s-60 18-60 62v13h-55v-15c0-71 56-107 115-107" horiz-adv-x="824" unicode="Ŏ"/><glyph d="M54 356C54 150 213-12 412-12s358 162 358 368c0 202-159 359-358 359S54 558 54 356m72 0c0 168 127 295 286 295 158 0 286-127 286-295 0-172-128-304-286-304-159 0-286 132-286 304m165 396h66l54 81h2l54-81h66l-84 119h-75z" horiz-adv-x="824" unicode="Ô"/><glyph d="M54 356C54 150 213-12 412-12s358 162 358 368c0 202-159 359-358 359S54 558 54 356m72 0c0 168 127 295 286 295 158 0 286-127 286-295 0-172-128-304-286-304-159 0-286 132-286 304m331 429h62v86h-62m-151-86h61v86h-61z" horiz-adv-x="824" unicode="Ö"/><glyph d="M54 356C54 150 213-12 412-12s358 162 358 368c0 202-159 359-358 359S54 558 54 356m72 0c0 168 127 295 286 295 158 0 286-127 286-295 0-172-128-304-286-304-159 0-286 132-286 304m255 396h62l-69 119h-79z" horiz-adv-x="824" unicode="Ò"/><glyph d="M54 356C54 150 213-12 412-12s358 162 358 368c0 202-159 359-358 359S54 558 54 356m72 0c0 168 127 295 286 295 158 0 286-127 286-295 0-172-128-304-286-304-159 0-286 132-286 304m307 396h60l87 119h-77M299 752h65l68 119h-68z" horiz-adv-x="824" unicode="Ő"/><glyph d="M54 356C54 150 213-12 412-12s358 162 358 368c0 202-159 359-358 359S54 558 54 356m72 0c0 168 127 295 286 295 158 0 286-127 286-295 0-172-128-304-286-304-159 0-286 132-286 304m163 429h246v55H289z" horiz-adv-x="824" unicode="Ō"/><glyph d="M56 356c0-114 48-215 125-282L132 5l42-29 48 68c56-36 121-56 192-56 199 0 358 162 358 368 0 112-50 211-128 276l47 66-41 30-47-66c-55 33-120 53-189 53-199 0-358-157-358-359m644 0c0-172-128-304-286-304-57 0-109 17-153 46l344 479c58-53 95-131 95-221m-572 0c0 168 127 295 286 295 55 0 106-16 150-43L221 130c-57 55-93 135-93 226" horiz-adv-x="827" unicode="Ø"/><glyph d="M54 356C54 150 213-12 412-12s358 162 358 368c0 202-159 359-358 359S54 558 54 356m72 0c0 168 127 295 286 295 158 0 286-127 286-295 0-172-128-304-286-304-159 0-286 132-286 304m130 399h55c0 26 6 68 39 68 45 0 59-71 126-71 61 0 92 40 92 117h-54c0-26-7-69-40-69-45 0-59 72-126 72-61 0-92-40-92-117" horiz-adv-x="824" unicode="Õ"/><glyph d="M102 0h69v276h174c126 0 217 84 217 215 0 130-91 212-217 212H102m69-365v303h166c93 0 154-55 154-150 0-96-61-153-155-153z" horiz-adv-x="598" unicode="P"/><glyph d="M54 356C54 151 211-12 410-12c89 0 169 30 231 83l86-87 42 43-87 87c54 63 88 149 88 242 0 202-158 359-360 359-199 0-356-157-356-359m72 0c0 168 124 295 284 295 162 0 288-127 288-295 0-73-25-143-65-194l-85 87-42-43 86-88c-48-41-118-66-182-66-160 0-284 133-284 304" horiz-adv-x="835" unicode="Q"/><glyph d="M102 0h69v296h177L507 0h79L433 283c-11 19-18 28-18 28v2c79 22 133 95 133 190 0 85-40 152-106 181-28 12-60 19-132 19H102m69-345v283h142c54 0 79-6 100-17 41-22 64-65 64-123 0-88-54-143-139-143z" horiz-adv-x="628" unicode="R"/><glyph d="M102 0h69v296h177L507 0h79L433 283c-11 19-18 28-18 28v2c79 22 133 95 133 190 0 85-40 152-106 181-28 12-60 19-132 19H102m69-345v283h142c54 0 79-6 100-17 41-22 64-65 64-123 0-88-54-143-139-143m-68 394h62l86 119h-79z" horiz-adv-x="628" unicode="Ŕ"/><glyph d="M102 0h69v296h177L507 0h79L433 283c-11 19-18 28-18 28v2c79 22 133 95 133 190 0 85-40 152-106 181-28 12-60 19-132 19H102m69-345v283h142c54 0 79-6 100-17 41-22 64-65 64-123 0-88-54-143-139-143m-74 394h75l84 119h-66l-54-80h-2l-54 80h-66z" horiz-adv-x="628" unicode="Ř"/><glyph d="M102 0h69v296h177L507 0h79L433 283c-11 19-18 28-18 28v2c79 22 133 95 133 190 0 85-40 152-106 181-28 12-60 19-132 19H102m69-345v283h142c54 0 79-6 100-17 41-22 64-65 64-123 0-88-54-143-139-143M289-63c8-22 11-41 11-58 0-26-7-51-19-81h56c15 33 23 60 23 90 0 16-2 32-6 49z" horiz-adv-x="628" unicode="Ŗ"/><glyph d="M50 78s79-90 223-90c132 0 213 85 213 190 0 231-351 183-351 350 0 62 58 121 148 121 92 0 154-60 154-60l34 58s-66 68-188 68c-130 0-219-88-219-189 0-218 351-173 351-350 0-76-63-122-140-122-111 0-184 77-184 77z" horiz-adv-x="538" unicode="S"/><glyph d="M50 78s79-90 223-90c132 0 213 85 213 190 0 231-351 183-351 350 0 62 58 121 148 121 92 0 154-60 154-60l34 58s-66 68-188 68c-130 0-219-88-219-189 0-218 351-173 351-350 0-76-63-122-140-122-111 0-184 77-184 77m148 621h62l86 119h-79z" horiz-adv-x="538" unicode="Ś"/><glyph d="M50 78s79-90 223-90c132 0 213 85 213 190 0 231-351 183-351 350 0 62 58 121 148 121 92 0 154-60 154-60l34 58s-66 68-188 68c-130 0-219-88-219-189 0-218 351-173 351-350 0-76-63-122-140-122-111 0-184 77-184 77m143 621h75l84 119h-66l-54-80h-2l-54 80h-66z" horiz-adv-x="538" unicode="Š"/><glyph d="M50 78s70-79 198-89l-18-80s7 1 15 1c35 0 57-12 57-34 0-27-25-34-51-34-23 0-42 6-42 6v-48s20-5 50-5c49 0 96 21 96 79 0 40-30 65-70 71l8 44c120 8 193 89 193 189 0 231-351 183-351 350 0 62 58 121 148 121 92 0 154-60 154-60l34 58s-66 68-188 68c-130 0-219-88-219-189 0-218 351-173 351-350 0-76-63-122-140-122-111 0-184 77-184 77z" horiz-adv-x="538" unicode="Ş"/><glyph d="M50 78s79-90 223-90c132 0 213 85 213 190 0 231-351 183-351 350 0 62 58 121 148 121 92 0 154-60 154-60l34 58s-66 68-188 68c-130 0-219-88-219-189 0-218 351-173 351-350 0-76-63-122-140-122-111 0-184 77-184 77m60 621h66l54 81h2l54-81h66l-84 119h-75z" horiz-adv-x="538" unicode="Ŝ"/><glyph d="M50 78s79-90 223-90c132 0 213 85 213 190 0 231-351 183-351 350 0 62 58 121 148 121 92 0 154-60 154-60l34 58s-66 68-188 68c-130 0-219-88-219-189 0-218 351-173 351-350 0-76-63-122-140-122-111 0-184 77-184 77M235-63c8-22 11-41 11-58 0-26-7-51-19-81h56c15 33 23 60 23 90 0 16-2 32-6 49z" horiz-adv-x="538" unicode="Ș"/><glyph d="M260 0h69v641h252v62H7v-62h253z" horiz-adv-x="588" unicode="T"/><glyph d="M109 324h162V0h69v324h166v57H340v260h252v62H18v-62h253V381H109z" horiz-adv-x="611" unicode="Ŧ"/><glyph d="M260 0h69v641h252v62H7v-62h253m-4 111h75l84 119h-66l-54-80h-2l-54 80h-66z" horiz-adv-x="588" unicode="Ť"/><glyph d="M260 0h11l-21-91s7 1 15 1c35 0 57-12 57-34 0-27-25-34-51-34-23 0-42 6-42 6v-48s20-5 50-5c49 0 96 21 96 79 0 40-30 65-70 71l10 55h14v641h252v62H7v-62h253z" horiz-adv-x="588" unicode="Ţ"/><glyph d="M102 0h69v151h172c127 0 219 84 219 214 0 131-92 213-217 213H171v125h-69m69-490v303h166c93 0 153-55 153-151 0-95-60-152-154-152z" horiz-adv-x="599" unicode="Þ"/><glyph d="M93 245C93 89 203-12 363-12c159 0 268 101 268 257v458h-69V248c0-123-79-196-200-196s-199 73-199 194v457H93z" horiz-adv-x="724" unicode="U"/><glyph d="M93 245C93 89 203-12 363-12c159 0 268 101 268 257v458h-69V248c0-123-79-196-200-196s-199 73-199 194v457H93m237 49h62l86 119h-79z" horiz-adv-x="724" unicode="Ú"/><glyph d="M93 245C93 89 203-12 363-12c159 0 268 101 268 257v458h-69V248c0-123-79-196-200-196s-199 73-199 194v457H93m269 46c60 0 116 36 116 107v15h-55v-13c0-44-30-62-61-62s-60 18-60 62v13h-55v-15c0-71 56-107 115-107" horiz-adv-x="724" unicode="Ŭ"/><glyph d="M93 245C93 89 203-12 363-12c159 0 268 101 268 257v458h-69V248c0-123-79-196-200-196s-199 73-199 194v457H93m148 49h66l54 81h2l54-81h66l-84 119h-75z" horiz-adv-x="724" unicode="Û"/><glyph d="M93 245C93 89 203-12 363-12c159 0 268 101 268 257v458h-69V248c0-123-79-196-200-196s-199 73-199 194v457H93m314 82h62v86h-62m-151-86h61v86h-61z" horiz-adv-x="724" unicode="Ü"/><glyph d="M93 245C93 89 203-12 363-12c159 0 268 101 268 257v458h-69V248c0-123-79-196-200-196s-199 73-199 194v457H93m239 49h62l-69 119h-79z" horiz-adv-x="724" unicode="Ù"/><glyph d="M93 245C93 89 203-12 363-12c159 0 268 101 268 257v458h-69V248c0-123-79-196-200-196s-199 73-199 194v457H93m290 49h60l87 119h-77M249 752h65l68 119h-68z" horiz-adv-x="724" unicode="Ű"/><glyph d="M93 245C93 89 203-12 363-12c159 0 268 101 268 257v458h-69V248c0-123-79-196-200-196s-199 73-199 194v457H93m146 82h246v55H239z" horiz-adv-x="724" unicode="Ū"/><glyph d="M329-113c0-85 110-92 110-92l15 56s-62 5-62 50c0 46 52 81 107 116 64 41 132 99 132 228v458h-69V248c0-123-79-196-200-196s-199 73-199 194v457H93V245C93 89 203-12 363-12c6 0 12 0 18 1-25-24-52-59-52-102" horiz-adv-x="724" unicode="Ų"/><glyph d="M93 245C93 89 203-12 363-12c159 0 268 101 268 257v458h-69V248c0-123-79-196-200-196s-199 73-199 194v457H93m269 38c41 0 76 29 76 71s-35 71-76 71-75-29-75-71 34-71 75-71m0 38c-19 0-32 14-32 33 0 20 13 34 32 34 20 0 33-14 33-34 0-19-13-33-33-33" horiz-adv-x="724" unicode="Ů"/><glyph d="M93 245C93 89 203-12 363-12c159 0 268 101 268 257v458h-69V248c0-123-79-196-200-196s-199 73-199 194v457H93m113 52h55c0 26 6 68 39 68 45 0 59-71 126-71 61 0 92 40 92 117h-54c0-26-7-69-40-69-45 0-59 72-126 72-61 0-92-40-92-117" horiz-adv-x="724" unicode="Ũ"/><glyph d="M273 0h72l261 703h-74L337 169c-13-36-27-91-27-91h-2s-14 55-27 91L86 703H12z" horiz-adv-x="618" unicode="V"/><glyph d="M463 600s11-60 23-105L620 0h83l187 703h-72L677 157c-9-36-16-75-16-75h-2c-1 0-6 39-16 75L495 703h-66L281 157c-10-36-15-75-16-75h-2s-7 39-16 75L111 703H39L221 0h83l134 495c12 45 23 105 23 105z" horiz-adv-x="927" unicode="W"/><glyph d="M463 600s11-60 23-105L620 0h83l187 703h-72L677 157c-9-36-16-75-16-75h-2c-1 0-6 39-16 75L495 703h-66L281 157c-10-36-15-75-16-75h-2s-7 39-16 75L111 703H39L221 0h83l134 495c12 45 23 105 23 105M346 752h66l54 81h2l54-81h66l-84 119h-75z" horiz-adv-x="927" unicode="Ŵ"/><glyph d="M26 0h80l144 242c22 37 43 79 43 79h2s22-42 44-78L485 0h80L340 367l206 336h-82L340 495c-22-36-42-81-42-81h-2s-25 45-46 81L127 703H46l204-336z" horiz-adv-x="592" unicode="X"/><glyph d="M252 0h70v302l236 401h-78L331 448c-22-37-43-84-43-84h-2s-22 48-43 84L94 703H15l237-401z" horiz-adv-x="574" unicode="Y"/><glyph d="M252 0h70v302l236 401h-78L331 448c-22-37-43-84-43-84h-2s-22 48-43 84L94 703H15l237-401m2 450h62l86 119h-79z" horiz-adv-x="574" unicode="Ý"/><glyph d="M252 0h70v302l236 401h-78L331 448c-22-37-43-84-43-84h-2s-22 48-43 84L94 703H15l237-401m-86 450h66l54 81h2l54-81h66l-84 119h-75z" horiz-adv-x="574" unicode="Ŷ"/><glyph d="M252 0h70v302l236 401h-78L331 448c-22-37-43-84-43-84h-2s-22 48-43 84L94 703H15l237-401m75 483h62v86h-62m-151-86h61v86h-61z" horiz-adv-x="574" unicode="Ÿ"/><glyph d="M43 0h501v62H180c-34 0-52-2-52-2v2s24 26 50 64l363 528v49H62v-62h342c34 0 51 2 51 2v-2s-23-27-49-64L43 49z" horiz-adv-x="595" unicode="Z"/><glyph d="M43 0h501v62H180c-34 0-52-2-52-2v2s24 26 50 64l363 528v49H62v-62h342c34 0 51 2 51 2v-2s-23-27-49-64L43 49m232 703h62l86 119h-79z" horiz-adv-x="595" unicode="Ź"/><glyph d="M43 0h501v62H180c-34 0-52-2-52-2v2s24 26 50 64l363 528v49H62v-62h342c34 0 51 2 51 2v-2s-23-27-49-64L43 49m227 703h75l84 119h-66l-54-80h-2l-54 80h-66z" horiz-adv-x="595" unicode="Ž"/><glyph d="M43 0h501v62H180c-34 0-52-2-52-2v2s24 26 50 64l363 528v49H62v-62h342c34 0 51 2 51 2v-2s-23-27-49-64L43 49m233 737h65v85h-65z" horiz-adv-x="595" unicode="Ż"/><glyph d="M41 137C41 37 128-12 212-12 338-12 380 97 380 97h2s-2-17-2-42V0h65v322c0 126-67 193-188 193-113 0-179-57-179-57l32-52s59 48 142 48c72 0 125-33 125-130v-13h-28c-87 0-308-4-308-174m70 4c0 111 158 114 237 114h29v-22c0-87-58-187-154-187-75 0-112 48-112 95" horiz-adv-x="520" unicode="a"/><glyph d="M41 137C41 37 128-12 212-12 338-12 380 97 380 97h2s-2-17-2-42V0h65v322c0 126-67 193-188 193-113 0-179-57-179-57l32-52s59 48 142 48c72 0 125-33 125-130v-13h-28c-87 0-308-4-308-174m70 4c0 111 158 114 237 114h29v-22c0-87-58-187-154-187-75 0-112 48-112 95m114 443h62l86 119h-79z" horiz-adv-x="520" unicode="á"/><glyph d="M41 137C41 37 128-12 212-12 338-12 380 97 380 97h2s-2-17-2-42V0h65v322c0 126-67 193-188 193-113 0-179-57-179-57l32-52s59 48 142 48c72 0 125-33 125-130v-13h-28c-87 0-308-4-308-174m70 4c0 111 158 114 237 114h29v-22c0-87-58-187-154-187-75 0-112 48-112 95m147 440c60 0 116 36 116 107v15h-55v-13c0-44-30-62-61-62s-60 18-60 62v13h-55v-15c0-71 56-107 115-107" horiz-adv-x="520" unicode="ă"/><glyph d="M41 137C41 37 128-12 212-12 338-12 380 97 380 97h2s-2-17-2-42V0h65v322c0 126-67 193-188 193-113 0-179-57-179-57l32-52s59 48 142 48c72 0 125-33 125-130v-13h-28c-87 0-308-4-308-174m70 4c0 111 158 114 237 114h29v-22c0-87-58-187-154-187-75 0-112 48-112 95m27 443h66l54 81h2l54-81h66l-84 119h-75z" horiz-adv-x="520" unicode="â"/><glyph d="M178 752h62l86 119h-79z" horiz-adv-x="504" unicode="´"/><glyph d="M41 137C41 37 128-12 212-12 338-12 380 97 380 97h2s-2-17-2-42V0h65v322c0 126-67 193-188 193-113 0-179-57-179-57l32-52s59 48 142 48c72 0 125-33 125-130v-13h-28c-87 0-308-4-308-174m70 4c0 111 158 114 237 114h29v-22c0-87-58-187-154-187-75 0-112 48-112 95m193 476h62v86h-62m-151-86h61v86h-61z" horiz-adv-x="520" unicode="ä"/><glyph d="M41 137c0-97 81-149 173-149 134 0 182 114 190 140h2C443 41 524-12 627-12c114 0 186 70 186 70l-31 52s-61-61-152-61c-105 0-185 69-188 202h378s2 23 2 38c0 120-73 226-208 226-82 0-149-35-190-104h-2c-20 63-70 104-170 104-110 0-174-58-174-58l31-51s59 48 139 48c76 0 128-33 128-130v-17h-33c-112 0-302-5-302-170m405 170c16 101 82 150 165 150 71 0 138-45 142-150M111 141c0 103 122 110 207 110h59v-17c0-88-57-188-153-188-75 0-113 46-113 95" horiz-adv-x="870" unicode="æ"/><glyph d="M41 137C41 37 128-12 212-12 338-12 380 97 380 97h2s-2-17-2-42V0h65v322c0 126-67 193-188 193-113 0-179-57-179-57l32-52s59 48 142 48c72 0 125-33 125-130v-13h-28c-87 0-308-4-308-174m70 4c0 111 158 114 237 114h29v-22c0-87-58-187-154-187-75 0-112 48-112 95m117 443h62l-69 119h-79z" horiz-adv-x="520" unicode="à"/><glyph d="M41 137C41 37 128-12 212-12 338-12 380 97 380 97h2s-2-17-2-42V0h65v322c0 126-67 193-188 193-113 0-179-57-179-57l32-52s59 48 142 48c72 0 125-33 125-130v-13h-28c-87 0-308-4-308-174m70 4c0 111 158 114 237 114h29v-22c0-87-58-187-154-187-75 0-112 48-112 95m25 476h246v55H136z" horiz-adv-x="520" unicode="ā"/><glyph d="M60 194C60 77 156-12 297-12s233 85 233 253v103h95v62h-95v99h-69v-99H313c-131 0-151 80-151 127 0 76 62 121 141 121 25 0 58-7 58-7l20 58s-46 10-80 10c-128 0-211-70-211-178 0-125 98-156 98-156v-2C106 354 60 275 60 194m71 4c0 88 60 146 182 146h148V243c0-135-65-190-164-190-104 0-166 65-166 145" horiz-adv-x="674" unicode="&amp;"/><glyph d="M41 137C41 37 128-12 212-12 338-12 380 97 380 97h2s-2-17-2-42V1c-24-18-71-61-71-114 0-85 110-92 110-92l15 56s-62 5-62 50c0 40 51 82 73 99v322c0 126-67 193-188 193-113 0-179-57-179-57l32-52s59 48 142 48c72 0 125-33 125-130v-13h-28c-87 0-308-5-308-174m70 4c0 111 158 114 237 114h29v-22c0-87-58-187-154-187-75 0-112 48-112 95" horiz-adv-x="520" unicode="ą"/><glyph d="m168-5 265-141 134 71 132-71L964-5v152l124 72v278l-124 71v151L699 861l-132-71-134 71-265-142V568L42 497V219l126-72m40-117v139L94 233v249l114 66v136l238 126 121-64 118 64 238-126V548l114-66V233l-114-64V30L685-96 567-30 446-96M242 64 457-50 567 8l107-58L888 64v121l100 60v225l-100 58v123L674 765l-107-59-110 59-215-114V528l-99-58V245l99-60m201-94v449h-62v54h325c42 0 56-17 56-55v-64h-56v38c0 20-5 27-27 27H503V361h218v-53H503V91z" horiz-adv-x="1130" unicode=""/><glyph d="M91 321c28 28 70 56 113 56 71 0 104-70 198-70 60 0 114 36 146 69l-33 44c-27-29-70-56-113-56-71 0-104 70-198 70-59 0-113-36-146-69m33-218c28 28 70 56 113 56 71 0 104-70 198-70 60 0 114 36 146 69l-33 44c-27-28-70-56-113-56-71 0-104 70-198 70-59 0-113-36-146-69z" horiz-adv-x="606" unicode="≈"/><glyph d="M41 137C41 37 128-12 212-12 338-12 380 97 380 97h2s-2-17-2-42V0h65v322c0 126-67 193-188 193-113 0-179-57-179-57l32-52s59 48 142 48c72 0 125-33 125-130v-13h-28c-87 0-308-4-308-174m70 4c0 111 158 114 237 114h29v-22c0-87-58-187-154-187-75 0-112 48-112 95m147 432c41 0 76 29 76 71s-35 71-76 71-75-29-75-71 34-71 75-71m0 38c-19 0-32 14-32 33 0 20 13 34 32 34 20 0 33-14 33-34 0-19-13-33-33-33" horiz-adv-x="520" unicode="å"/><glyph d="M73 250h66l156 370 156-370h65L318 703h-47z" horiz-adv-x="606" unicode="^"/><glyph d="M74 209h59c0 37 11 100 71 100 85 0 89-104 199-104 75 0 127 45 127 155h-59c0-37-11-100-71-100-85 0-89 104-199 104-75 0-127-45-127-155" horiz-adv-x="602" unicode="~"/><glyph d="m149 337 85 126h2l86-127 52 39-94 120v2l148 43-20 61-146-52 7 154h-68l6-154-144 53-20-63 147-42v-2L96 375z" horiz-adv-x="471" unicode="*"/><glyph d="M65 242c0-203 158-366 366-366v60C260-64 135 72 135 242c0 168 127 308 291 308 118 0 170-55 172-117H468c-116 0-200-89-200-192 0-104 85-192 200-192h269v56h-71v315c0 97-64 189-245 189-196 0-356-163-356-367m273 0c0 75 59 138 138 138h122V105H474c-77 0-136 61-136 137" horiz-adv-x="805" unicode="@"/><glyph d="M41 137C41 37 128-12 212-12 338-12 380 97 380 97h2s-2-17-2-42V0h65v322c0 126-67 193-188 193-113 0-179-57-179-57l32-52s59 48 142 48c72 0 125-33 125-130v-13h-28c-87 0-308-4-308-174m70 4c0 111 158 114 237 114h29v-22c0-87-58-187-154-187-75 0-112 48-112 95m-8 446h55c0 26 6 68 39 68 45 0 59-71 126-71 61 0 92 40 92 117h-54c0-26-7-69-40-69-45 0-59 72-126 72-61 0-92-40-92-117" horiz-adv-x="520" unicode="ã"/><glyph d="M82 0h66v45c0 24-2 41-2 41h2s45-98 165-98c132 0 227 104 227 263 0 156-84 264-219 264-129 0-171-97-171-97h-2s2 18 2 41v244H82m66-453c0 143 79 203 163 203 94 0 159-79 159-202 0-128-73-203-162-203-108 0-160 101-160 202" horiz-adv-x="589" unicode="b"/><glyph d="M288-42h63L98 742H34z" horiz-adv-x="393" unicode="\"/><glyph d="M106-157h63v945h-63z" horiz-adv-x="275" unicode="|"/><glyph d="M138 83C138-83 247-97 287-97c9 0 15 1 15 1v56h-9c-25 0-92 10-92 125v110c0 102-80 127-80 127v2s80 29 80 127v98c0 116 67 125 92 125h9v56h-15c-40 0-149-14-149-179v-82c0-105-85-115-85-115v-62s85-10 85-114z" horiz-adv-x="336" unicode="{"/><glyph d="M34-40v-56s6-1 16-1c39 0 148 14 148 180v95c0 104 85 114 85 114v62s-85 10-85 115v82c0 165-109 179-148 179H34v-56h10c24 0 91-9 91-125v-98c0-98 80-127 80-127v-2s-80-25-80-127V85C135-30 68-40 44-40z" horiz-adv-x="336" unicode="}"/><glyph d="M107-95h135v56h-72v713h72v56H107z" horiz-adv-x="282" unicode="["/><glyph d="M40-39v-56h135v825H40v-56h72V-39z" horiz-adv-x="282" unicode="]"/><glyph d="M252 749c60 0 116 36 116 107v15h-55v-13c0-44-30-62-61-62s-60 18-60 62v13h-55v-15c0-71 56-107 115-107" horiz-adv-x="505" unicode="˘"/><glyph d="M201 148c79 0 142 64 142 143s-63 143-142 143S58 370 58 291s64-143 143-143" horiz-adv-x="401" unicode="•"/><glyph d="M47 251C47 95 162-12 311-12c128 0 196 79 196 79l-31 53s-59-71-161-71c-111 0-198 84-198 202 0 120 86 202 196 202 91 0 147-61 147-61l35 51s-61 72-184 72C163 515 47 406 47 251" horiz-adv-x="549" unicode="c"/><glyph d="M47 251C47 95 162-12 311-12c128 0 196 79 196 79l-31 53s-59-71-161-71c-111 0-198 84-198 202 0 120 86 202 196 202 91 0 147-61 147-61l35 51s-61 72-184 72C163 515 47 406 47 251m214 333h62l86 119h-79z" horiz-adv-x="549" unicode="ć"/><glyph d="M214 752h75l84 119h-66l-54-80h-2l-54 80h-66z" horiz-adv-x="504" unicode="ˇ"/><glyph d="M47 251C47 95 162-12 311-12c128 0 196 79 196 79l-31 53s-59-71-161-71c-111 0-198 84-198 202 0 120 86 202 196 202 91 0 147-61 147-61l35 51s-61 72-184 72C163 515 47 406 47 251m209 333h75l84 119h-66l-54-80h-2l-54 80h-66z" horiz-adv-x="549" unicode="č"/><glyph d="M48 251C48 107 145 5 277-10l-19-81s7 1 15 1c35 0 57-12 57-34 0-27-25-34-51-34-23 0-42 6-42 6v-48s20-5 50-5c49 0 96 21 96 79 0 40-30 65-70 71l8 43c122 4 187 79 187 79l-31 53s-59-71-161-71c-111 0-198 84-198 202 0 120 86 202 196 202 91 0 147-61 147-61l35 51s-61 72-184 72C164 515 48 406 48 251" horiz-adv-x="550" unicode="ç"/><glyph d="M47 251C47 95 162-12 311-12c128 0 196 79 196 79l-31 53s-59-71-161-71c-111 0-198 84-198 202 0 120 86 202 196 202 91 0 147-61 147-61l35 51s-61 72-184 72C163 515 47 406 47 251m126 333h66l54 81h2l54-81h66l-84 119h-75z" horiz-adv-x="549" unicode="ĉ"/><glyph d="M47 251C47 95 162-12 311-12c128 0 196 79 196 79l-31 53s-59-71-161-71c-111 0-198 84-198 202 0 120 86 202 196 202 91 0 147-61 147-61l35 51s-61 72-184 72C163 515 47 406 47 251m214 367h65v85h-65z" horiz-adv-x="549" unicode="ċ"/><glyph d="M226 20 200-91s7 1 15 1c35 0 57-12 57-34 0-27-25-34-51-34-23 0-42 6-42 6v-48s20-5 50-5c49 0 96 21 96 79 0 40-30 65-70 71l11 60v8z" horiz-adv-x="504" unicode="¸"/><glyph d="M270-13h56v85c90 8 152 71 187 148l-64 25c-29-64-76-108-148-108-117 0-170 93-170 215 0 120 54 215 170 215 72 0 119-45 148-108l64 24c-36 81-99 138-187 148v84h-56v-84C134 616 60 497 60 352c0-146 74-265 210-280z" horiz-adv-x="572" unicode="¢"/><glyph d="M131 752h66l54 81h2l54-81h66l-84 119h-75z" horiz-adv-x="504" unicode="ˆ"/><glyph d="M107 423h79v80h-79m0-503h79v80h-79z" horiz-adv-x="293" unicode=":"/><glyph d="M36-97h58l74 179H93z" horiz-adv-x="244" unicode=","/><glyph d="M135-63c8-22 11-41 11-58 0-26-7-51-19-81h56c15 33 23 60 23 90 0 16-2 32-6 49z" horiz-adv-x="335" unicode=""/><glyph d="M60 352C60 148 218-12 413-12c199 0 358 160 358 364 0 202-159 363-358 363-195 0-353-161-353-363m59 0c0 173 128 309 294 309 170 0 300-136 300-309 0-175-130-310-300-310-166 0-294 135-294 310m98-2c0-105 74-204 206-204 109 0 163 93 163 93l-46 31s-40-69-115-69c-98 0-149 73-149 150s52 150 149 150c74 0 115-69 115-69l46 31s-53 93-163 93c-132 0-206-101-206-206" horiz-adv-x="831" unicode="©"/><glyph d="M49 252C49 96 133-12 268-12 400-12 441 89 441 89h2s-2-14-2-36V0h66v703h-68V458c0-21 2-38 2-38h-2s-42 95-164 95C143 515 49 411 49 252m70 0c0 127 73 202 162 202 108 0 160-100 160-202 0-143-79-203-163-203-94 0-159 79-159 203" horiz-adv-x="589" unicode="d"/><glyph d="M162-50h67v495h121v58H229v200h-67V503H45v-58h117z" horiz-adv-x="395" unicode="†"/><glyph d="M64 179h117V-50h67v229h121v58H248v208h121v58H248v200h-67V503H64v-58h117V237H64z" horiz-adv-x="433" unicode="‡"/><glyph d="M49 252C49 96 133-12 268-12 400-12 441 89 441 89h2s-2-14-2-36V0h66v703h-68V458c0-21 2-38 2-38h-2s-42 95-164 95C143 515 49 411 49 252m70 0c0 127 73 202 162 202 108 0 160-100 160-202 0-143-79-203-163-203-94 0-159 79-159 203m451 451c8-22 11-41 11-58 0-26-7-51-19-81h56c15 33 23 60 23 90 0 16-2 32-6 49z" horiz-adv-x="619" unicode="ď"/><glyph d="M307 566h132V458c0-21 2-38 2-38h-2s-42 95-164 95C143 515 49 411 49 252 49 96 133-12 268-12 400-12 441 89 441 89h2s-2-14-2-36V0h66v566h80v51h-80v86h-68v-86H307M119 252c0 127 73 202 162 202 108 0 160-100 160-202 0-143-79-203-163-203-94 0-159 79-159 203" horiz-adv-x="589" unicode="đ"/><glyph d="M190 436c78 0 141 62 141 139 0 76-63 139-141 139S50 651 50 575c0-77 62-139 140-139m0 56c-46 0-80 37-80 83 0 45 34 83 80 83s82-38 82-83c0-46-36-83-82-83" horiz-adv-x="381" unicode="°"/><glyph d="M297 785h62v86h-62m-151-86h61v86h-61z" horiz-adv-x="504" unicode="¨"/><glyph d="M285 433h75v74h-75M78 255h490v58H78M285 61h75v74h-75z" horiz-adv-x="646" unicode="÷"/><glyph d="M61 78s69-78 196-88v-93h56v93C428 1 497 81 497 178c0 227-353 189-353 350 0 62 57 121 148 121s154-60 154-60l34 58s-59 61-167 67v93h-56v-95C146 698 73 618 73 526c0-214 354-179 354-350 0-76-63-122-140-122-111 0-184 77-184 77z" horiz-adv-x="557" unicode="$"/><glyph d="M220 786h65v85h-65z" horiz-adv-x="505" unicode="˙"/><glyph d="M82 0h68v503H82z" horiz-adv-x="232" unicode="ı"/><glyph d="M47 251C47 96 160-12 310-12c113 0 186 70 186 70l-31 52s-61-61-153-61c-104 0-192 70-195 199h386s2 23 2 35c0 125-71 232-210 232-136 0-248-99-248-264m73 53c16 101 89 154 173 154 75 0 139-49 143-154z" horiz-adv-x="553" unicode="e"/><glyph d="M47 251C47 96 160-12 310-12c113 0 186 70 186 70l-31 52s-61-61-153-61c-104 0-192 70-195 199h386s2 23 2 35c0 125-71 232-210 232-136 0-248-99-248-264m73 53c16 101 89 154 173 154 75 0 139-49 143-154M263 584h62l86 119h-79z" horiz-adv-x="553" unicode="é"/><glyph d="M47 251C47 96 160-12 310-12c113 0 186 70 186 70l-31 52s-61-61-153-61c-104 0-192 70-195 199h386s2 23 2 35c0 125-71 232-210 232-136 0-248-99-248-264m73 53c16 101 89 154 173 154 75 0 139-49 143-154M295 581c60 0 116 36 116 107v15h-55v-13c0-44-30-62-61-62s-60 18-60 62v13h-55v-15c0-71 56-107 115-107" horiz-adv-x="553" unicode="ĕ"/><glyph d="M47 251C47 96 160-12 310-12c113 0 186 70 186 70l-31 52s-61-61-153-61c-104 0-192 70-195 199h386s2 23 2 35c0 125-71 232-210 232-136 0-248-99-248-264m73 53c16 101 89 154 173 154 75 0 139-49 143-154M258 584h75l84 119h-66l-54-80h-2l-54 80h-66z" horiz-adv-x="553" unicode="ě"/><glyph d="M47 251C47 96 160-12 310-12c113 0 186 70 186 70l-31 52s-61-61-153-61c-104 0-192 70-195 199h386s2 23 2 35c0 125-71 232-210 232-136 0-248-99-248-264m73 53c16 101 89 154 173 154 75 0 139-49 143-154M175 584h66l54 81h2l54-81h66l-84 119h-75z" horiz-adv-x="553" unicode="ê"/><glyph d="M47 251C47 96 160-12 310-12c113 0 186 70 186 70l-31 52s-61-61-153-61c-104 0-192 70-195 199h386s2 23 2 35c0 125-71 232-210 232-136 0-248-99-248-264m73 53c16 101 89 154 173 154 75 0 139-49 143-154m-95 313h62v86h-62m-151-86h61v86h-61z" horiz-adv-x="553" unicode="ë"/><glyph d="M47 251C47 96 160-12 310-12c113 0 186 70 186 70l-31 52s-61-61-153-61c-104 0-192 70-195 199h386s2 23 2 35c0 125-71 232-210 232-136 0-248-99-248-264m73 53c16 101 89 154 173 154 75 0 139-49 143-154M263 618h65v85h-65z" horiz-adv-x="553" unicode="ė"/><glyph d="M47 251C47 96 160-12 310-12c113 0 186 70 186 70l-31 52s-61-61-153-61c-104 0-192 70-195 199h386s2 23 2 35c0 125-71 232-210 232-136 0-248-99-248-264m73 53c16 101 89 154 173 154 75 0 139-49 143-154M266 584h62l-69 119h-79z" horiz-adv-x="553" unicode="è"/><glyph d="M64 202C64 69 175-12 302-12c136 0 233 93 233 203 0 73-44 118-102 151 8 8 86 90 86 190 0 110-84 183-215 183-142 0-212-87-212-178 0-67 37-110 87-143-16-10-115-79-115-192m400-10c0-83-79-140-162-140-85 0-167 58-167 153 0 90 79 146 101 159 104-50 228-81 228-172M162 536c0 63 52 115 142 115 85 0 145-47 145-122 0-84-60-147-73-159-101 44-214 75-214 166" horiz-adv-x="602" unicode="8"/><glyph d="M40-33c0-88 77-134 153-134 82 0 148 54 148 125 0 49-29 77-67 99 8 8 57 56 57 116 0 77-69 115-137 115S59 250 59 176c0-43 22-71 53-92C92 71 40 30 40-33m245-8c0-45-47-76-92-76-49 0-97 32-97 86 0 47 37 79 57 93 62-30 132-49 132-103M114 174c0 44 40 64 79 64 41 0 83-22 83-67s-31-80-44-93c-58 25-118 44-118 96" horiz-adv-x="382" unicode="₈"/><glyph d="M40 547c0-88 77-134 153-134 82 0 148 54 148 125 0 49-29 77-67 99 8 8 57 56 57 116 0 77-69 115-137 115S59 830 59 756c0-43 22-71 53-92-20-13-72-54-72-117m245-8c0-45-47-76-92-76-49 0-97 32-97 86 0 47 37 79 57 93 62-30 132-49 132-103M114 754c0 44 40 64 79 64 41 0 83-22 83-67s-31-80-44-93c-58 25-118 44-118 96" horiz-adv-x="382" unicode="⁸"/><glyph d="M554 0h77v80h-77M319 0h77v80h-77M84 0h77v80H84z" horiz-adv-x="715" unicode="…"/><glyph d="M47 251C47 96 160-12 310-12c113 0 186 70 186 70l-31 52s-61-61-153-61c-104 0-192 70-195 199h386s2 23 2 35c0 125-71 232-210 232-136 0-248-99-248-264m73 53c16 101 89 154 173 154 75 0 139-49 143-154M173 617h246v55H173z" horiz-adv-x="553" unicode="ē"/><glyph d="M104 255h700v58H104z" horiz-adv-x="908" unicode="—"/><glyph d="M104 255h500v58H104z" horiz-adv-x="708" unicode="–"/><glyph d="M82 0h68v241c0 24 2 47 8 68 23 83 97 142 183 142 97 0 109-70 109-149V-20c0-115-75-129-114-129-13 0-22 1-22 1v-59s11-3 29-3c57 0 175 20 175 187v343c0 124-44 195-168 195-119 0-183-81-201-127h-2s2 16 2 36v79H82z" horiz-adv-x="593" unicode="ŋ"/><glyph d="M47 251C47 96 160-12 310-12c12 0 22 1 32 3v-2c-26-24-54-58-54-102 0-85 110-92 110-92l15 56s-62 5-62 50c0 70 103 117 145 157l-31 52s-61-61-153-61c-104 0-192 70-195 199h386s2 23 2 35c0 125-71 232-210 232-136 0-248-99-248-264m73 53c16 101 89 154 173 154 75 0 139-49 143-154z" horiz-adv-x="554" unicode="ę"/><glyph d="M109 342h466v58H109m0-232h466v58H109z" horiz-adv-x="684" unicode="="/><glyph d="M49 232c0-123 84-244 231-244 175 0 248 151 248 285 0 152-64 260-151 328l97 45-13 48-131-59c-62 37-132 61-196 77l-20-58c51-12 99-29 142-51l-135-63 13-48 176 80c57-39 100-90 124-159h-2s-48 54-144 54C131 467 49 351 49 232m70-1c0 89 56 178 176 178 98 0 163-63 163-149 0-96-52-211-176-211-105 0-163 90-163 182" horiz-adv-x="588" unicode="ð"/><glyph d="M121 184h64l3 519h-70M116 0h77v77h-77z" horiz-adv-x="307" unicode="!"/><glyph d="M98 426h77v77H98m4-703h70l-3 519h-64z" horiz-adv-x="274" unicode="¡"/><glyph d="M105 0h68v440h129v57H173v24c0 112 74 126 113 126 14 0 24-2 24-2v61s-12 2-31 2c-57 0-174-21-174-187v-24H42v-57h63z" horiz-adv-x="320" unicode="f"/><glyph d="M425 0h68v446h129v57H493v18c0 112 74 126 113 126 14 0 24-2 24-2v61s-12 2-31 2c-57 0-174-21-174-187v-18H173v18c0 112 74 126 113 126 14 0 24-2 24-2v61s-12 2-31 2c-57 0-174-21-174-187v-18H42v-57h63V0h68v446h252z" horiz-adv-x="640" unicode="ﬀ"/><glyph d="M425 0h68v446h229V0h68v503H493v18c0 112 74 126 113 126 14 0 24-2 24-2v61s-12 2-31 2c-57 0-174-21-174-187v-18H173v18c0 112 74 126 113 126 14 0 24-2 24-2v61s-12 2-31 2c-57 0-174-21-174-187v-18H42v-57h63V0h68v446h252m295 172h71v85h-71z" horiz-adv-x="872" unicode="ﬃ"/><glyph d="M425 0h68v446h129v57H493v18c0 112 74 126 113 126 14 0 24-2 24-2v61s-12 2-31 2c-57 0-174-21-174-187v-18H173v18c0 112 74 126 113 126 14 0 24-2 24-2v61s-12 2-31 2c-57 0-174-21-174-187v-18H42v-57h63V0h68v446h252m292-327C717 9 791-4 833-4c13 0 25 2 25 2v61s-8-1-17-1c-26 0-56 10-56 76v569h-68z" horiz-adv-x="887" unicode="ﬄ"/><glyph d="M402 0h68v503H173v18c0 112 74 126 113 126 14 0 24-2 24-2v61s-12 2-31 2c-57 0-174-21-174-187v-18H42v-57h63V0h68v446h229m-2 172h71v85h-71z" horiz-adv-x="552" unicode="ﬁ"/><glyph d="M54 88S120-12 260-12c137 0 244 101 244 231 0 127-101 229-242 229-63 0-107-27-107-27h-2s4 15 7 40l20 180h280v62H120L82 362l44-16s53 38 128 38c100 0 178-69 178-165S354 54 257 54c-107 0-159 82-159 82z" horiz-adv-x="558" unicode="5"/><glyph d="M182-167c89 0 156 67 156 147 0 79-64 145-152 145-35 0-60-12-60-12h-2s3 14 6 37l8 78h172v50H92L68 65l33-13s33 24 78 24c57 0 102-42 102-96s-46-95-101-95c-64 0-96 52-96 52L46-98s46-69 136-69" horiz-adv-x="382" unicode="₅"/><glyph d="M182 413c89 0 156 67 156 147 0 79-64 145-152 145-35 0-60-12-60-12h-2s3 14 6 37l8 78h172v50H92L68 645l33-13s33 24 78 24c57 0 102-42 102-96s-46-95-101-95c-64 0-96 52-96 52l-38-35s46-69 136-69" horiz-adv-x="382" unicode="⁵"/><glyph d="M105 0h68v440h129v57H173v24c0 112 74 126 113 126 14 0 24-2 24-2v61s-12 2-31 2c-57 0-174-21-174-187v-24H42v-57h63m292-321C397 9 471-4 513-4c13 0 25 2 25 2v61s-8-1-17-1c-26 0-56 10-56 76v569h-68z" horiz-adv-x="567" unicode="ﬂ"/><glyph d="M34-40v-60s29-6 65-6c57 0 174 20 189 186l25 284h131v58H318l10 104c11 114 84 128 124 128 35 0 81-7 81-7v61s-43 7-83 7c-57 0-174-21-189-186l-10-107h-95v-58h89L221 83C211-31 136-45 98-45c-32 0-64 5-64 5" horiz-adv-x="567" unicode="ƒ"/><glyph d="M34 195h352V0h69v195h100v61H455v447h-75L34 240m84 16v2l234 305c19 25 35 53 35 53h2s-3-36-3-66V256z" horiz-adv-x="597" unicode="4"/><glyph d="M236-157h55v114h65V7h-65v271h-55L24-5v-38h212M92 7v2l113 147c16 22 32 49 32 49h2s-3-35-3-62V7z" horiz-adv-x="382" unicode="₄"/><glyph d="M236 423h55v114h65v50h-65v271h-55L24 575v-38h212M92 587v2l113 147c16 22 32 49 32 49h2s-3-35-3-62V587z" horiz-adv-x="382" unicode="⁴"/><glyph d="m-59 0 335 703h-58L-118 0z" horiz-adv-x="158" unicode="⁄"/><glyph d="m120-114-26-56c49-25 107-40 165-40 123 0 241 62 241 222v491h-66v-55c0-11 1-17 1-17h-2s-33 84-166 84C132 515 49 412 49 261S138 3 273 3c78 0 129 32 159 88h2s-2-17-2-36V9c0-112-78-158-176-158-74 0-136 35-136 35M284 64c-100 0-165 78-165 198s57 191 155 191c89 0 159-45 159-192 0-148-70-197-149-197" horiz-adv-x="582" unicode="g"/><glyph d="m120-114-26-56c49-25 107-40 165-40 123 0 241 62 241 222v491h-66v-55c0-11 1-17 1-17h-2s-33 84-166 84C132 515 49 412 49 261S138 3 273 3c78 0 129 32 159 88h2s-2-17-2-36V9c0-112-78-158-176-158-74 0-136 35-136 35M284 64c-100 0-165 78-165 198s57 191 155 191c89 0 159-45 159-192 0-148-70-197-149-197m0 517c60 0 116 36 116 107v15h-55v-13c0-44-30-62-61-62s-60 18-60 62v13h-55v-15c0-71 56-107 115-107" horiz-adv-x="582" unicode="ğ"/><glyph d="m120-114-26-56c49-25 107-40 165-40 123 0 241 62 241 222v491h-66v-55c0-11 1-17 1-17h-2s-33 84-166 84C132 515 49 412 49 261S138 3 273 3c78 0 129 32 159 88h2s-2-17-2-36V9c0-112-78-158-176-158-74 0-136 35-136 35M284 64c-100 0-165 78-165 198s57 191 155 191c89 0 159-45 159-192 0-148-70-197-149-197M164 584h66l54 81h2l54-81h66l-84 119h-75z" horiz-adv-x="582" unicode="ĝ"/><glyph d="m120-114-26-56c49-25 107-40 165-40 123 0 241 62 241 222v491h-66v-55c0-11 1-17 1-17h-2s-33 84-166 84C132 515 49 412 49 261S138 3 273 3c78 0 129 32 159 88h2s-2-17-2-36V9c0-112-78-158-176-158-74 0-136 35-136 35M284 64c-100 0-165 78-165 198s57 191 155 191c89 0 159-45 159-192 0-148-70-197-149-197m35 502c-8 21-11 40-11 57 0 26 7 51 19 81h-56c-15-33-23-60-23-90q0-24 6-48z" horiz-adv-x="582" unicode="ģ"/><glyph d="m120-114-26-56c49-25 107-40 165-40 123 0 241 62 241 222v491h-66v-55c0-11 1-17 1-17h-2s-33 84-166 84C132 515 49 412 49 261S138 3 273 3c78 0 129 32 159 88h2s-2-17-2-36V9c0-112-78-158-176-158-74 0-136 35-136 35M284 64c-100 0-165 78-165 198s57 191 155 191c89 0 159-45 159-192 0-148-70-197-149-197m-32 554h65v85h-65z" horiz-adv-x="582" unicode="ġ"/><glyph d="M82 0h68v526c0 83 65 127 130 127 72 0 108-46 108-88 0-81-111-111-111-198 0-106 196-135 196-229 0-58-47-84-98-84-83 0-143 36-143 36V25S285-7 380-7c84 0 162 47 162 143 0 127-195 165-195 233 0 63 111 94 111 197 0 78-68 149-175 149-100 0-201-64-201-184z" horiz-adv-x="573" unicode="ß"/><glyph d="M264 752h62l-69 119h-79z" horiz-adv-x="504" unicode="`"/><glyph d="m65 57 452 202v50L65 511v-67l367-159v-2L65 124z" horiz-adv-x="567" unicode="&gt;"/><glyph d="m85 57 452 202v50L85 511v-67l368-159v-2L85 124m0-228v-58h451v58z" horiz-adv-x="606" unicode="≥"/><glyph d="M229 282 393 77h74L303 282l164 206h-74M214 77h73L123 282l164 206h-73L50 282z" horiz-adv-x="523" unicode="«"/><glyph d="M236 77h74l164 205-164 206h-74l164-206M56 77h74l164 205-164 206H56l164-206z" horiz-adv-x="524" unicode="»"/><glyph d="M214 77h73L123 282l164 206h-73L50 282z" horiz-adv-x="343" unicode="‹"/><glyph d="M56 77h74l164 205-164 206H56l164-206z" horiz-adv-x="344" unicode="›"/><glyph d="M82 0h68v241c0 24 2 47 8 67 23 84 97 143 183 143 97 0 109-70 109-149V0h68v320c0 124-44 195-168 195-114 0-181-77-200-125h-2s2 18 2 41v272H82z" horiz-adv-x="593" unicode="h"/><glyph d="M6 566h76V0h68v241c0 24 2 47 8 67 23 84 97 143 183 143 97 0 109-70 109-149V0h68v320c0 124-44 195-168 195-114 0-181-77-200-125h-2s2 18 2 41v135h133v51H150v86H82v-86H6z" horiz-adv-x="593" unicode="ħ"/><glyph d="M82 0h68v241c0 24 2 47 8 67 23 84 97 143 183 143 97 0 109-70 109-149V0h68v320c0 124-44 195-168 195-114 0-181-77-200-125h-2s2 18 2 41v272H82m-86 49h66l54 81h2l54-81h66l-84 119H79z" horiz-adv-x="593" unicode="ĥ"/><glyph d="M246 752h60l87 119h-77M112 752h65l68 119h-68z" horiz-adv-x="504" unicode="˝"/><glyph d="M104 253h284v62H104z" horiz-adv-x="492" unicode="-"/><glyph d="M80 618h71v85H80M82 0h68v503H82z" horiz-adv-x="232" unicode="i"/><glyph d="M84 584h62l86 119h-79M82 0h68v503H82z" horiz-adv-x="232" unicode="í"/><glyph d="M116 581c60 0 116 36 116 107v15h-55v-13c0-44-30-62-61-62s-60 18-60 62v13H1v-15c0-71 56-107 115-107M82 0h68v503H82z" horiz-adv-x="232" unicode="ĭ"/><glyph d="M82 0h68v503H82m-86 81h66l54 81h2l54-81h66l-84 119H79z" horiz-adv-x="232" unicode="î"/><glyph d="M162 617h62v86h-62M11 617h61v86H11M82 0h68v503H82z" horiz-adv-x="232" unicode="ï"/><glyph d="M86 584h62L79 703H0M82 0h68v503H82z" horiz-adv-x="232" unicode="ì"/><glyph d="M80 618h71v85H80M82 0h68v503H82m231 115h70v85h-70m1-200V-16c0-115-76-129-115-129-13 0-22 1-22 1v-59s12-3 30-3c56 0 175 20 175 187v522z" horiz-adv-x="464" unicode="ĳ"/><glyph d="M-6 617h246v55H-6M82 0h68v503H82z" horiz-adv-x="232" unicode="ī"/><glyph d="M250 176c96 0 172 78 172 173 0 96-76 172-172 172-95 0-173-76-173-172 0-95 78-173 173-173" horiz-adv-x="499" unicode="∞"/><glyph d="M22-113c0-85 110-92 110-92l16 56s-62 5-62 50c0 40 44 82 64 99v503H82V-1C60-21 22-63 22-113m58 731h71v85H80z" horiz-adv-x="232" unicode="į"/><glyph d="M-39 587h55c0 26 6 68 39 68 45 0 59-71 126-71 61 0 92 40 92 117h-54c0-26-7-69-40-69-45 0-59 72-126 72-61 0-92-40-92-117M82 0h68v503H82z" horiz-adv-x="232" unicode="ĩ"/><glyph d="M81 618h70v85H81m1-200V-16C82-131 6-145-33-145c-13 0-22 1-22 1v-59s12-3 30-3c56 0 175 20 175 187v522z" horiz-adv-x="232" unicode="j"/><glyph d="M82 503V-16C82-131 6-145-33-145c-13 0-22 1-22 1v-59s12-3 30-3c56 0 175 20 175 187v522M-7 584h65l54 81h2l54-81h65l-84 119H77z" horiz-adv-x="232" unicode="ĵ"/><glyph d="M82 0h68v252h81L399 0h81L288 282v2l175 219h-82L230 311h-80v392H82z" horiz-adv-x="502" unicode="k"/><glyph d="M82 0h68v252h81L399 0h81L288 282v2l175 219h-82L230 311h-80v392H82M228-63c8-22 11-41 11-58 0-26-7-51-19-81h56c15 33 23 60 23 90 0 16-2 32-6 49z" horiz-adv-x="502" unicode="ķ"/><glyph d="M82 0h68v238h80L387 0h84L288 268v2l183 233h-83L229 297h-79v206H82z" horiz-adv-x="504" unicode="ĸ"/><glyph d="M77 119C77 9 151-4 193-4c13 0 25 2 25 2v61s-8-1-17-1c-26 0-56 10-56 76v569H77z" horiz-adv-x="247" unicode="l"/><glyph d="M77 119C77 9 151-4 193-4c13 0 25 2 25 2v61s-8-1-17-1c-26 0-56 10-56 76v569H77m3 49h62l86 119h-79z" horiz-adv-x="247" unicode="ĺ"/><glyph d="M77 119C77 9 151-4 193-4c13 0 25 2 25 2v61s-8-1-17-1c-26 0-56 10-56 76v569H77m131 0c8-22 11-41 11-58 0-26-7-51-19-81h56c15 33 23 60 23 90 0 16-2 32-6 49z" horiz-adv-x="277" unicode="ľ"/><glyph d="M77 119C77 9 151-4 193-4c13 0 25 2 25 2v61s-8-1-17-1c-26 0-56 10-56 76v569H77m35-766c8-22 11-41 11-58 0-26-7-51-19-81h56c15 33 23 60 23 90 0 16-2 32-6 49z" horiz-adv-x="247" unicode="ļ"/><glyph d="M77 119C77 9 151-4 193-4c13 0 25 2 25 2v61s-8-1-17-1c-26 0-56 10-56 76v569H77m136-371h77v80h-77z" horiz-adv-x="299" unicode="ŀ"/><glyph d="M50 259 502 57v67L135 283v2l367 159v67L50 309z" horiz-adv-x="567" unicode="&lt;"/><glyph d="M69 259 521 57v67L154 283v2l367 159v67L69 309m1-413v-58h451v58z" horiz-adv-x="606" unicode="≤"/><glyph d="M73 342h405V158h61v242H73z" horiz-adv-x="623" unicode="¬"/><glyph d="M105 0h68v521c0 112 74 126 112 126 15 0 24-2 24-2v61s-12 2-31 2c-56 0-173-21-173-187v-24H42v-57h63z" horiz-adv-x="255" unicode="ſ"/><glyph d="m36 306 82 46V119C118 9 192-4 234-4c13 0 25 2 25 2v61s-8-1-17-1c-26 0-56 10-56 76v257l87 50v72l-87-50v240h-68V423l-82-47z" horiz-adv-x="308" unicode="ł"/><glyph d="M82 0h68v238c0 23 2 46 7 67 21 77 83 148 165 148 95 0 106-74 106-150V0h68v238c0 27 2 51 9 73 19 74 82 142 159 142 92 0 109-68 109-150V0h68v320c0 124-45 195-167 195-85 0-158-58-185-126h-2c-15 83-63 126-156 126-78 0-158-59-182-127h-2s2 18 2 40v75H82z" horiz-adv-x="916" unicode="m"/><glyph d="M129 785h246v55H129z" horiz-adv-x="504" unicode="¯"/><glyph d="M50 255h506v58H50z" horiz-adv-x="606" unicode="−"/><glyph d="M89-200h63v154c0 25-7 76-7 76h2s27-42 111-42c146 0 196 127 196 127h2s-2-18-2-39V0h66v503h-68V262c0-109-71-210-185-210-97 0-110 70-110 149v302H89z" horiz-adv-x="609" unicode="µ"/><glyph d="m72 41 41-41 214 241L541 0l41 41-217 243 217 243-41 41-214-241-214 241-41-41 216-243z" horiz-adv-x="655" unicode="×"/><glyph d="M82 0h68v241c0 24 2 47 8 68 23 83 97 142 183 142 97 0 109-70 109-149V0h68v320c0 124-44 195-168 195-119 0-183-81-201-127h-2s2 18 2 40v75H82z" horiz-adv-x="593" unicode="n"/><glyph d="M82 0h68v241c0 24 2 47 8 68 23 83 97 142 183 142 97 0 109-70 109-149V0h68v320c0 124-44 195-168 195-119 0-183-81-201-127h-2s2 18 2 40v75H82m196 81h62l86 119h-79z" horiz-adv-x="593" unicode="ń"/><glyph d="M82 0h68v241c0 24 2 47 8 68 23 83 97 142 183 142 97 0 109-70 109-149V0h68v320c0 124-44 195-168 195-119 0-183-81-201-127h-2s2 18 2 40v75H82M19 703c8-22 11-41 11-58 0-26-7-51-19-81h56c15 33 23 60 23 90 0 16-2 32-6 49z" horiz-adv-x="593" unicode="ŉ"/><glyph d="M82 0h68v241c0 24 2 47 8 68 23 83 97 142 183 142 97 0 109-70 109-149V0h68v320c0 124-44 195-168 195-119 0-183-81-201-127h-2s2 18 2 40v75H82m190 81h75l84 119h-66l-54-80h-2l-54 80h-66z" horiz-adv-x="593" unicode="ň"/><glyph d="M82 0h68v241c0 24 2 47 8 68 23 83 97 142 183 142 97 0 109-70 109-149V0h68v320c0 124-44 195-168 195-119 0-183-81-201-127h-2s2 18 2 40v75H82M266-63c8-22 11-41 11-58 0-26-7-51-19-81h56c15 33 23 60 23 90 0 16-2 32-6 49z" horiz-adv-x="593" unicode="ņ"/><glyph d="M220-12c218 0 309 221 309 397 0 190-101 330-254 330-123 0-220-89-220-235 0-133 90-227 218-227 73 0 144 32 179 82h2C441 198 367 53 219 53c-58 0-102 25-102 25L91 17s52-29 129-29m64 327c-96 0-159 66-159 166 0 97 56 169 151 169 105 0 178-121 178-215 0-57-75-120-170-120" horiz-adv-x="594" unicode="9"/><glyph d="M38 140C38 56 96-2 180-2c33 0 74 17 95 40h2c-11-80-56-153-131-153-34 0-65 16-65 16l-22-47s38-21 88-21c136 0 191 143 191 254 0 117-62 201-158 201-79 0-142-55-142-148m56-1c0 54 31 98 86 98 61 0 100-71 100-126 0-32-44-67-95-67-54 0-91 39-91 95" horiz-adv-x="382" unicode="₉"/><glyph d="M38 720c0-84 58-142 142-142 33 0 74 17 95 40h2c-11-80-56-153-131-153-34 0-65 16-65 16l-22-47s38-21 88-21c136 0 191 143 191 254 0 117-62 201-158 201-79 0-142-55-142-148m56-1c0 54 31 98 86 98 61 0 100-71 100-126 0-32-44-67-95-67-54 0-91 39-91 95" horiz-adv-x="382" unicode="⁹"/><glyph d="m126 83 42-29 84 114h284v58H292l86 116h158v58H418l65 87-42 30-86-117H70v-58h245l-86-116H70v-58h118z" horiz-adv-x="606" unicode="≠"/><glyph d="M82 0h68v241c0 24 2 47 8 68 23 83 97 142 183 142 97 0 109-70 109-149V0h68v320c0 124-44 195-168 195-119 0-183-81-201-127h-2s2 18 2 40v75H82m73 84h55c0 26 6 68 39 68 45 0 59-71 126-71 61 0 92 40 92 117h-54c0-26-7-69-40-69-45 0-59 72-126 72-61 0-92-40-92-117" horiz-adv-x="593" unicode="ñ"/><glyph d="M155 0h61l34 195h173L389 0h61l34 195h140l9 56H494l34 196h140l10 56H538l35 200h-61l-35-200H304l35 200h-61l-35-200H101l-9-56h141l-35-196H57l-10-56h142m71 56 34 196h173l-35-196z" horiz-adv-x="724" unicode="#"/><glyph d="M45 254C45 102 164-12 311-12s266 114 266 266c0 149-119 261-266 261S45 403 45 254m70 0c0 114 88 199 196 199s196-85 196-199c0-117-88-205-196-205s-196 88-196 205" horiz-adv-x="622" unicode="o"/><glyph d="M45 254C45 102 164-12 311-12s266 114 266 266c0 149-119 261-266 261S45 403 45 254m70 0c0 114 88 199 196 199s196-85 196-199c0-117-88-205-196-205s-196 88-196 205m164 330h62l86 119h-79z" horiz-adv-x="622" unicode="ó"/><glyph d="M45 254C45 102 164-12 311-12s266 114 266 266c0 149-119 261-266 261S45 403 45 254m70 0c0 114 88 199 196 199s196-85 196-199c0-117-88-205-196-205s-196 88-196 205m196 327c60 0 116 36 116 107v15h-55v-13c0-44-30-62-61-62s-60 18-60 62v13h-55v-15c0-71 56-107 115-107" horiz-adv-x="622" unicode="ŏ"/><glyph d="M45 254C45 102 164-12 311-12s266 114 266 266c0 149-119 261-266 261S45 403 45 254m70 0c0 114 88 199 196 199s196-85 196-199c0-117-88-205-196-205s-196 88-196 205m75 330h66l54 81h2l54-81h66l-84 119h-75z" horiz-adv-x="622" unicode="ô"/><glyph d="M45 254C45 102 164-12 311-12s266 114 266 266c0 149-119 261-266 261S45 403 45 254m70 0c0 114 88 199 196 199s196-85 196-199c0-117-88-205-196-205s-196 88-196 205m241 363h62v86h-62m-151-86h61v86h-61z" horiz-adv-x="622" unicode="ö"/><glyph d="M46 250C46 91 167-12 310-12c102 0 186 52 228 137h2C581 41 664-12 769-12c114 0 187 70 187 70l-32 52s-60-61-152-61c-101 0-189 67-195 199h386s2 23 2 35c0 125-72 232-211 232-97 0-176-49-215-135h-2c-43 83-126 135-227 135-143 0-264-105-264-265m534 54c16 101 89 154 173 154 75 0 138-49 142-154m-779-54c0 122 88 203 195 203 104 0 195-77 195-199 0-125-89-205-195-205-107 0-195 80-195 201" horiz-adv-x="1013" unicode="œ"/><glyph d="M179-113c0-85 110-92 110-92l15 56s-62 5-62 50c0 51 84 107 84 107l-50 14s-97-55-97-135" horiz-adv-x="504" unicode="˛"/><glyph d="M45 254C45 102 164-12 311-12s266 114 266 266c0 149-119 261-266 261S45 403 45 254m70 0c0 114 88 199 196 199s196-85 196-199c0-117-88-205-196-205s-196 88-196 205m166 330h62l-69 119h-79z" horiz-adv-x="622" unicode="ò"/><glyph d="M45 254C45 102 164-12 311-12s266 114 266 266c0 149-119 261-266 261S45 403 45 254m70 0c0 114 88 199 196 199s196-85 196-199c0-117-88-205-196-205s-196 88-196 205m217 330h60l87 119h-77M198 584h65l68 119h-68z" horiz-adv-x="622" unicode="ő"/><glyph d="M45 254C45 102 164-12 311-12s266 114 266 266c0 149-119 261-266 261S45 403 45 254m70 0c0 114 88 199 196 199s196-85 196-199c0-117-88-205-196-205s-196 88-196 205m73 363h246v55H188z" horiz-adv-x="622" unicode="ō"/><glyph d="M56 0h381v62H282v641h-64L59 545l44-45 75 75c28 27 35 42 35 42h2s-1-19-1-39V62H56z" horiz-adv-x="466" unicode="1"/><glyph d="m318 0 335 703h-58L259 0M63 268h243v50h-93v385h-52l-99-98 35-37 40 38c17 17 21 25 21 25h1s-1-11-1-24V318H63M592 0h278v50H648c6 114 214 121 214 268 0 72-52 127-136 127s-127-65-127-65l36-35s36 49 89 49c49 0 82-35 82-77 0-112-217-120-217-286 0-9 1-20 3-31" horiz-adv-x="942" unicode="½"/><glyph d="M74-157h243v50h-93v385h-52l-99-98 35-37 40 38c17 17 21 25 21 25h1s-1-11-1-24v-289H74z" horiz-adv-x="382" unicode="₁"/><glyph d="m317 0 335 703h-58L258 0M63 268h243v50h-93v385h-52l-99-98 35-37 40 38c17 17 21 25 21 25h1s-1-11-1-24V318H63M772 0h55v114h65v50h-65v271h-55L560 152v-38h212m-144 50v2l113 147c16 22 32 49 32 49h2s-3-35-3-62V164z" horiz-adv-x="944" unicode="¼"/><glyph d="M74 423h243v50h-93v385h-52l-99-98 35-37 40 38c17 17 21 25 21 25h1s-1-11-1-24V473H74z" horiz-adv-x="382" unicode="¹"/><glyph d="M193 382c65 0 94 55 94 55h2v-49h52v202c0 80-42 123-120 123-71 0-115-37-115-37l26-39s38 29 84 29c41 0 71-19 71-74v-4h-13c-55 0-191-4-191-111 0-64 56-95 110-95m8 48c-41 0-62 24-62 52 0 60 93 62 135 62h12v-9c0-49-32-105-85-105M81 264h264v47H81z" horiz-adv-x="427" unicode="ª"/><glyph d="M236 383c92 0 167 72 167 167 0 93-75 164-167 164S69 643 69 550c0-95 75-167 167-167m0 51c-62 0-112 49-112 116 0 66 50 114 112 114s112-48 112-114c0-67-50-116-112-116M86 264h303v47H86z" horiz-adv-x="474" unicode="º"/><glyph d="M46 254c0-85 37-158 95-206L104-3l41-30 38 53c38-20 82-32 129-32 147 0 266 114 266 266 0 79-34 148-88 195l38 54-41 30-39-54c-40 23-86 36-136 36-147 0-266-112-266-261m70 0c0 114 88 199 196 199 36 0 70-10 99-27L179 102c-39 37-63 90-63 152m392 0c0-117-88-205-196-205-33 0-65 8-92 23l231 323c35-35 57-85 57-141" horiz-adv-x="624" unicode="ø"/><glyph d="M45 254C45 102 164-12 311-12s266 114 266 266c0 149-119 261-266 261S45 403 45 254m70 0c0 114 88 199 196 199s196-85 196-199c0-117-88-205-196-205s-196 88-196 205m40 333h55c0 26 6 68 39 68 45 0 59-71 126-71 61 0 92 40 92 117h-54c0-26-7-69-40-69-45 0-59 72-126 72-61 0-92-40-92-117" horiz-adv-x="622" unicode="õ"/><glyph d="M82-200h68V40c0 26-2 44-2 44h2s44-96 165-96c130 0 225 104 225 263 0 156-84 264-219 264-133 0-174-100-174-100h-2s2 17 2 39v49H82m66-253c0 143 79 203 163 203 94 0 159-79 159-202 0-128-73-203-162-203-104 0-160 101-160 202" horiz-adv-x="589" unicode="p"/><glyph d="M288-50h57v691h181v62H287C158 703 49 603 49 473s110-232 239-232M407-50h58v631h-58z" horiz-adv-x="573" unicode="¶"/><glyph d="M193-95h63C181 40 143 187 143 337c0 140 41 271 113 393h-63C121 613 80 481 80 337c0-158 43-312 113-432" horiz-adv-x="290" unicode="("/><glyph d="M97-95c70 120 113 274 113 432 0 144-41 276-113 393H34c72-122 113-253 113-393 0-150-37-297-113-432z" horiz-adv-x="289" unicode=")"/><glyph d="M196 437c78 0 141 62 141 139 0 76-63 139-141 139S56 652 56 576c0-77 62-139 140-139M62 0h72l535 703h-71M196 493c-46 0-81 37-81 83 0 45 35 83 81 83s82-38 82-83c0-46-36-83-82-83m198-367c0-76 62-138 140-138s141 62 141 138c0 77-63 140-141 140s-140-63-140-140m60 1c0 45 34 83 80 83s82-38 82-83c0-46-36-83-82-83s-80 37-80 83" horiz-adv-x="730" unicode="%"/><glyph d="M84 0h79v80H84z" horiz-adv-x="247" unicode="."/><glyph d="M97 248h77v80H97z" horiz-adv-x="271" unicode="·"/><glyph d="M196 437c78 0 141 62 141 139 0 76-63 139-141 139S56 652 56 576c0-77 62-139 140-139M62 0h72l535 703h-71M196 493c-46 0-81 37-81 83 0 45 35 83 81 83s82-38 82-83c0-46-36-83-82-83m534-367c0-76 63-138 140-138 78 0 141 62 141 138 0 77-63 140-141 140-77 0-140-63-140-140m-336 0c0-76 62-138 140-138s141 62 141 138c0 77-63 140-141 140s-140-63-140-140m396 1c0 45 34 83 80 83s82-38 82-83c0-46-36-83-82-83s-80 37-80 83m-336 0c0 45 34 83 80 83s82-38 82-83c0-46-36-83-82-83s-80 37-80 83" horiz-adv-x="1063" unicode="‰"/><glyph d="M83 255h231V0h61v255h230v58H375v255h-61V313H83z" horiz-adv-x="688" unicode="+"/><glyph d="M83 255h231V0h61v255h230v58H375v255h-61V313H83m18-417v-58h486v58z" horiz-adv-x="688" unicode="±"/><glyph d="M49 252C49 96 133-12 268-12c129 0 171 98 171 98h2s-2-18-2-44v-242h68v703h-66v-47c0-22 1-38 1-38h-2s-43 97-165 97C143 515 49 411 49 252m70 0c0 127 73 202 162 202 108 0 160-100 160-202 0-143-79-203-163-203-94 0-159 79-159 203" horiz-adv-x="589" unicode="q"/><glyph d="M154 184h68v43c0 132 179 146 179 312 0 104-86 177-200 177-99 0-161-57-161-57l37-51s53 43 121 43c77 0 131-51 131-115 0-129-175-148-175-307M150 0h77v77h-77z" horiz-adv-x="481" unicode="?"/><glyph d="M219 426h77v77h-77M45-33c0-104 86-177 200-177 99 0 161 57 161 57l-37 50s-53-42-121-42c-77 0-131 51-131 115 0 126 174 151 174 306v43h-67v-40C224 147 45 132 45-33" horiz-adv-x="440" unicode="¿"/><glyph d="M190 544h59v169h-59M69 544h59v169H69z" horiz-adv-x="318" unicode="&quot;"/><glyph d="M169-90h54l56 172h-71M51-90h54l56 172H90z" horiz-adv-x="356" unicode="„"/><glyph d="M176 540h72l39 172h-55M56 540h72l39 172h-54z" horiz-adv-x="335" unicode="“"/><glyph d="M177 541h55l56 172h-72M57 541h55l56 172H96z" horiz-adv-x="329" unicode="”"/><glyph d="M56 540h72l39 172h-54z" horiz-adv-x="215" unicode="‘"/><glyph d="M57 541h55l56 172H96z" horiz-adv-x="209" unicode="’"/><glyph d="M51-90h54l56 172H90z" horiz-adv-x="238" unicode="‚"/><glyph d="M69 544h59v169H69z" horiz-adv-x="197" unicode="'"/><glyph d="M82 0h68v212c0 32 4 66 14 98 22 74 75 130 146 130 13 0 25-2 25-2v67s-13 3-27 3c-79 0-135-58-159-134h-2s2 18 2 40v89H82z" horiz-adv-x="356" unicode="r"/><glyph d="M82 0h68v212c0 32 4 66 14 98 22 74 75 130 146 130 13 0 25-2 25-2v67s-13 3-27 3c-79 0-135-58-159-134h-2s2 18 2 40v89H82m99 81h62l86 119h-79z" horiz-adv-x="356" unicode="ŕ"/><glyph d="M82 0h68v212c0 32 4 66 14 98 22 74 75 130 146 130 13 0 25-2 25-2v67s-13 3-27 3c-79 0-135-58-159-134h-2s2 18 2 40v89H82m95 81h75l84 119h-66l-54-80h-2l-54 80H94z" horiz-adv-x="356" unicode="ř"/><glyph d="M82 0h68v212c0 32 4 66 14 98 22 74 75 130 146 130 13 0 25-2 25-2v67s-13 3-27 3c-79 0-135-58-159-134h-2s2 18 2 40v89H82m2-566c8-22 11-41 11-58 0-26-7-51-19-81h56c15 33 23 60 23 90 0 16-2 32-6 49z" horiz-adv-x="356" unicode="ŗ"/><glyph d="M60 352C60 148 218-12 413-12c199 0 358 160 358 364 0 202-159 363-358 363-195 0-353-161-353-363m59 0c0 173 128 309 294 309 170 0 300-136 300-309 0-175-130-310-300-310-166 0-294 135-294 310m176-195h56v158h75l78-158h62l-75 147c-9 17-13 22-13 22v2c36 9 73 45 73 103 0 70-48 116-117 116H295m56-188v141h73c42 0 69-25 69-69 0-45-27-72-69-72z" horiz-adv-x="831" unicode="®"/><glyph d="M252 741c41 0 76 29 76 71s-35 71-76 71-75-29-75-71 34-71 75-71m0 38c-19 0-32 14-32 33 0 20 13 34 32 34 20 0 33-14 33-34 0-19-13-33-33-33" horiz-adv-x="505" unicode="˚"/><glyph d="M41 61s64-73 186-73c101 0 172 59 172 141 0 166-271 136-271 247 0 56 49 78 100 78 83 0 126-46 126-46l31 52s-49 55-155 55c-91 0-172-49-172-139 0-164 271-137 271-247 0-53-47-80-101-80-94 0-150 61-150 61z" horiz-adv-x="443" unicode="s"/><glyph d="M41 61s64-73 186-73c101 0 172 59 172 141 0 166-271 136-271 247 0 56 49 78 100 78 83 0 126-46 126-46l31 52s-49 55-155 55c-91 0-172-49-172-139 0-164 271-137 271-247 0-53-47-80-101-80-94 0-150 61-150 61m116 474h62l86 119h-79z" horiz-adv-x="443" unicode="ś"/><glyph d="M41 61s64-73 186-73c101 0 172 59 172 141 0 166-271 136-271 247 0 56 49 78 100 78 83 0 126-46 126-46l31 52s-49 55-155 55c-91 0-172-49-172-139 0-164 271-137 271-247 0-53-47-80-101-80-94 0-150 61-150 61m112 474h75l84 119h-66l-54-80h-2l-54 80h-66z" horiz-adv-x="443" unicode="š"/><glyph d="M41 61S95-1 200-11l-18-80s7 1 15 1c35 0 57-12 57-34 0-27-25-34-51-34-23 0-42 6-42 6v-48s20-5 50-5c49 0 96 21 96 79 0 40-30 65-70 71l8 44c91 6 154 63 154 140 0 166-271 136-271 247 0 56 49 78 100 78 83 0 126-46 126-46l31 52s-49 55-155 55c-91 0-172-49-172-139 0-164 271-137 271-247 0-53-47-80-101-80-94 0-150 61-150 61z" horiz-adv-x="443" unicode="ş"/><glyph d="M41 61s64-73 186-73c101 0 172 59 172 141 0 166-271 136-271 247 0 56 49 78 100 78 83 0 126-46 126-46l31 52s-49 55-155 55c-91 0-172-49-172-139 0-164 271-137 271-247 0-53-47-80-101-80-94 0-150 61-150 61m29 474h66l54 81h2l54-81h66l-84 119h-75z" horiz-adv-x="443" unicode="ŝ"/><glyph d="M41 61s64-73 186-73c101 0 172 59 172 141 0 166-271 136-271 247 0 56 49 78 100 78 83 0 126-46 126-46l31 52s-49 55-155 55c-91 0-172-49-172-139 0-164 271-137 271-247 0-53-47-80-101-80-94 0-150 61-150 61M192-63c8-22 11-41 11-58 0-26-7-51-19-81h56c15 33 23 60 23 90 0 16-2 32-6 49z" horiz-adv-x="443" unicode="ș"/><glyph d="M140 85h60l-66 432c-3 11-4 21-4 31 0 68 49 107 110 107 47 0 81-29 81-29l35 47s-47 42-116 42c-104 0-172-69-172-161 0-11 1-23 4-35M55-20s47-42 116-42C275-62 344 6 344 99c0 11-2 22-4 35l-68 434h-60l65-429c3-11 4-22 4-32C281 38 233-2 172-2c-47 0-82 30-82 30z" horiz-adv-x="412" unicode="§"/><glyph d="M62-97h58l66 179h-75m0 341h79v80h-79z" horiz-adv-x="293" unicode=";"/><glyph d="M97 0h72l326 655v48H38v-62h329c35 0 53 2 53 2v-2s-20-27-39-65z" horiz-adv-x="520" unicode="7"/><glyph d="M65-157h62l210 398v37H47v-50h175c31 0 50 2 50 2v-2s-16-25-33-57z" horiz-adv-x="382" unicode="₇"/><glyph d="M65 423h62l210 398v37H47v-50h175c31 0 50 2 50 2v-2s-16-25-33-57z" horiz-adv-x="382" unicode="⁷"/><glyph d="M319-12c123 0 221 89 221 235 0 133-91 227-219 227-73 0-144-32-178-82h-2c12 137 87 282 234 282 58 0 102-25 102-25l26 61s-51 29-129 29C157 715 65 494 65 318 65 128 166-12 319-12m-1 65c-105 0-178 121-178 215 0 57 76 120 170 120 96 0 159-66 159-166 0-97-56-169-151-169" horiz-adv-x="595" unicode="6"/><glyph d="M202-167c79 0 142 55 142 149 0 84-58 141-142 141-33 0-75-16-95-39h-2c11 80 56 152 131 152 34 0 65-16 65-16l22 48s-38 20-88 20C99 288 44 146 44 34c0-117 62-201 158-201m0 52c-61 0-100 71-100 126 0 31 44 66 95 66 54 0 91-38 91-95 0-53-31-97-86-97" horiz-adv-x="382" unicode="₆"/><glyph d="M202 413c79 0 142 55 142 149 0 84-58 141-142 141-33 0-75-16-95-39h-2c11 80 56 152 131 152 34 0 65-16 65-16l22 48s-38 20-88 20C99 868 44 726 44 614c0-117 62-201 158-201m0 52c-61 0-100 71-100 126 0 31 44 66 95 66 54 0 91-38 91-95 0-53-31-97-86-97" horiz-adv-x="382" unicode="⁶"/><glyph d="M41-42h64l253 784h-63z" horiz-adv-x="392" unicode="/"/><glyph horiz-adv-x="269"/><glyph d="M78 326h44V62H59V0h472v62H192v264h192v55H192v145c0 67 49 124 137 124 65 0 114-42 114-42l42 50s-62 57-156 57c-121 0-207-80-207-185V381H78z" horiz-adv-x="589" unicode="£"/><glyph d="M101 183C101 15 218-4 276-4c18 0 29 2 29 2v61s-9-2-23-2c-38 0-113 15-113 133v250h126v57H169v145h-67V497H35v-57h66z" horiz-adv-x="335" unicode="t"/><glyph d="M45 278h68v-95C113 15 230-4 288-4c18 0 29 2 29 2v61s-9-2-23-2c-38 0-113 16-113 131v90h124v53H181v109h126v57H181v145h-67V497H47v-57h66V331H45z" horiz-adv-x="360" unicode="ŧ"/><glyph d="M101 183C101 15 218-4 276-4c18 0 29 2 29 2v61s-9-2-23-2c-38 0-113 15-113 133v250h126v57H169v145h-67V497H35v-57h66m135 263c8-22 11-41 11-58 0-25-7-50-19-80h56c15 33 23 60 23 89 0 16-2 32-6 49z" horiz-adv-x="335" unicode="ť"/><glyph d="M102 183c0-95 37-142 79-165L156-91s7 1 15 1c35 0 57-12 57-34 0-27-25-34-51-34-23 0-42 6-42 6v-48s20-5 50-5c49 0 96 21 96 79 0 40-30 65-70 71l10 57c21-4 40-6 56-6 18 0 29 2 29 2v61s-9-2-23-2c-38 0-113 15-113 133v250h126v57H170v145h-67V497H36v-57h66z" horiz-adv-x="336" unicode="ţ"/><glyph horiz-adv-x="12"/><glyph d="M82-200h68V40c0 26-2 44-2 44h2s42-96 165-96c132 0 225 106 225 264 0 154-84 263-220 263-123 0-163-90-169-96h-2s1 17 1 41v243H82m66-452c0 144 78 202 164 202 93 0 158-80 158-201 0-126-71-203-161-203-102 0-161 94-161 202" horiz-adv-x="589" unicode="þ"/><glyph d="M45 84s85-96 223-96c133 0 231 100 231 220 0 152-131 202-220 207l210 242v46H78v-62h264c37 0 57 3 57 3v-2s-18-17-37-39L186 397l17-41h48c92 0 177-51 177-150 0-90-77-152-161-152-108 0-180 83-180 83z" horiz-adv-x="562" unicode="3"/><glyph d="M185-167c85 0 149 64 149 141 0 88-67 123-124 130l119 138v36H66v-50h154c18 0 37 3 37 3v-2s-15-13-25-25L133 89l14-31h33c48 0 98-30 98-84 0-52-48-89-94-89-68 0-106 52-106 52l-35-38s46-66 142-66" horiz-adv-x="382" unicode="₃"/><glyph d="m333 0 335 703h-58L274 0m514 0h55v114h65v50h-65v271h-55L576 152v-38h212m-144 50v2l113 147c16 22 32 49 32 49h2s-3-35-3-62V164m-599 94c85 0 149 64 149 141 0 88-67 123-124 130l119 138v36H70v-50h154c18 0 37 3 37 3v-2s-15-13-25-25l-99-115 14-31h33c48 0 98-30 98-84 0-52-48-89-94-89-68 0-106 52-106 52l-35-38s46-66 142-66" horiz-adv-x="960" unicode="¾"/><glyph d="M185 413c85 0 149 64 149 141 0 88-67 123-124 130l119 138v36H66v-50h154c18 0 37 3 37 3v-2s-15-13-25-25l-99-115 14-31h33c48 0 98-30 98-84 0-52-48-89-94-89-68 0-106 52-106 52l-35-38s46-66 142-66" horiz-adv-x="382" unicode="³"/><glyph d="M96 755h55c0 26 6 68 39 68 45 0 59-71 126-71 61 0 92 40 92 117h-54c0-26-7-69-40-69-45 0-59 72-126 72-61 0-92-40-92-117" horiz-adv-x="504" unicode="˜"/><glyph d="M433 265h56l25 297c1 15-1 29-1 29h2l112-244h46l112 244h2s-2-14-1-29l25-297h55l-34 438h-52L665 452c-9-19-14-41-14-41h-2s-5 22-14 41L520 703h-52M183 265h57v386h157v52H27v-52h156z" horiz-adv-x="932" unicode="™"/><glyph d="M64 0h439v62H136c1 187 356 220 356 456 0 110-80 197-214 197-149 0-213-127-213-127l52-35s54 96 157 96c88 0 146-58 146-135C420 324 60 292 60 45c0-14 1-29 4-45" horiz-adv-x="565" unicode="2"/><glyph d="M53-157h278v50H109C115 7 323 14 323 161c0 72-52 127-136 127S60 223 60 223l36-35s36 49 89 49c49 0 82-35 82-77C267 48 50 40 50-126c0-9 1-20 3-31" horiz-adv-x="382" unicode="₂"/><glyph d="M53 423h278v50H109c6 114 214 121 214 268 0 72-52 127-136 127S60 803 60 803l36-35s36 49 89 49c49 0 82-35 82-77 0-112-217-120-217-286 0-9 1-20 3-31" horiz-adv-x="382" unicode="²"/><glyph d="M75 183C75 52 125-12 243-12c111 0 177 78 197 127h2s-2-18-2-40V0h66v503h-68V262c0-109-71-210-186-210-97 0-109 70-109 149v302H75z" horiz-adv-x="588" unicode="u"/><glyph d="M75 183C75 52 125-12 243-12c111 0 177 78 197 127h2s-2-18-2-40V0h66v503h-68V262c0-109-71-210-186-210-97 0-109 70-109 149v302H75m183 81h62l86 119h-79z" horiz-adv-x="588" unicode="ú"/><glyph d="M75 183C75 52 125-12 243-12c111 0 177 78 197 127h2s-2-18-2-40V0h66v503h-68V262c0-109-71-210-186-210-97 0-109 70-109 149v302H75m215 78c60 0 116 36 116 107v15h-55v-13c0-44-30-62-61-62s-60 18-60 62v13h-55v-15c0-71 56-107 115-107" horiz-adv-x="588" unicode="ŭ"/><glyph d="M75 183C75 52 125-12 243-12c111 0 177 78 197 127h2s-2-18-2-40V0h66v503h-68V262c0-109-71-210-186-210-97 0-109 70-109 149v302H75m95 81h66l54 81h2l54-81h66l-84 119h-75z" horiz-adv-x="588" unicode="û"/><glyph d="M75 183C75 52 125-12 243-12c111 0 177 78 197 127h2s-2-18-2-40V0h66v503h-68V262c0-109-71-210-186-210-97 0-109 70-109 149v302H75m261 114h62v86h-62m-151-86h61v86h-61z" horiz-adv-x="588" unicode="ü"/><glyph d="M75 183C75 52 125-12 243-12c111 0 177 78 197 127h2s-2-18-2-40V0h66v503h-68V262c0-109-71-210-186-210-97 0-109 70-109 149v302H75m186 81h62l-69 119h-79z" horiz-adv-x="588" unicode="ù"/><glyph d="M75 183C75 52 125-12 243-12c111 0 177 78 197 127h2s-2-18-2-40V0h66v503h-68V262c0-109-71-210-186-210-97 0-109 70-109 149v302H75m237 81h60l87 119h-77M178 584h65l68 119h-68z" horiz-adv-x="588" unicode="ű"/><glyph d="M75 183C75 52 125-12 243-12c111 0 177 78 197 127h2s-2-18-2-40V0h66v503h-68V262c0-109-71-210-186-210-97 0-109 70-109 149v302H75m93 114h246v55H168z" horiz-adv-x="588" unicode="ū"/><glyph d="M34 0v-58h516V0z" horiz-adv-x="584" unicode="_"/><glyph horiz-adv-x="269"/><glyph d="M74 253h284v62H74z" horiz-adv-x="432" unicode="­"/><glyph d="M260 0h69v641h252v62H7v-62h253m0-704c8-22 11-41 11-58 0-26-7-51-19-81h56c15 33 23 60 23 90 0 16-2 32-6 49z" horiz-adv-x="588" unicode="Ț"/><glyph d="M101 183C101 15 218-4 276-4c18 0 29 2 29 2v61s-9-2-23-2c-38 0-113 15-113 133v250h126v57H169v145h-67V497H35v-57h66m79-503c8-22 11-41 11-58 0-26-7-51-19-81h56c15 33 23 60 23 90 0 16-2 32-6 49z" horiz-adv-x="335" unicode="ț"/><glyph d="M94 0h70v517c0 69 50 124 123 124h177c36 0 43 2 43 2v-2s-13-15-44-59L327 386v-49h81c87 0 141-62 141-137 0-74-54-138-133-138H275V0h145c111 0 201 90 201 200 0 102-77 195-191 195h-21v2s10 12 26 35l157 223v48H282c-107 0-188-81-188-187z" horiz-adv-x="678" unicode="ẞ"/><glyph d="M75 183C75 52 125-12 243-12c111 0 177 78 197 127h2s-2-18-2-40V0c-24-19-69-61-69-113 0-85 109-92 109-92l16 56s-62 5-62 50c0 40 51 82 72 99v503h-68V262c0-109-71-210-186-210-97 0-109 70-109 149v302H75z" horiz-adv-x="588" unicode="ų"/><glyph d="M75 183C75 52 125-12 243-12c111 0 177 78 197 127h2s-2-18-2-40V0h66v503h-68V262c0-109-71-210-186-210-97 0-109 70-109 149v302H75m215 70c41 0 76 29 76 71s-35 71-76 71-75-29-75-71 34-71 75-71m0 38c-19 0-32 14-32 33 0 20 13 34 32 34 20 0 33-14 33-34 0-19-13-33-33-33" horiz-adv-x="588" unicode="ů"/><glyph d="M75 183C75 52 125-12 243-12c111 0 177 78 197 127h2s-2-18-2-40V0h66v503h-68V262c0-109-71-210-186-210-97 0-109 70-109 149v302H75m60 84h55c0 26 6 68 39 68 45 0 59-71 126-71 61 0 92 40 92 117h-54c0-26-7-69-40-69-45 0-59 72-126 72-61 0-92-40-92-117" horiz-adv-x="588" unicode="ũ"/><glyph d="M206 0h74l192 503h-71L262 134c-10-26-18-60-18-60h-2s-8 35-17 60L85 503H13z" horiz-adv-x="485" unicode="v"/><glyph d="M187 0h74l123 358c8 25 15 54 15 54h2s7-29 16-54L540 0h74l170 503h-72L590 128c-8-25-15-54-15-54h-2s-7 30-15 54L434 501h-67L243 128c-8-24-15-54-15-54h-2s-7 30-15 54L89 503H17z" horiz-adv-x="801" unicode="w"/><glyph d="M187 0h74l123 358c8 25 15 54 15 54h2s7-29 16-54L540 0h74l170 503h-72L590 128c-8-25-15-54-15-54h-2s-7 30-15 54L434 501h-67L243 128c-8-24-15-54-15-54h-2s-7 30-15 54L89 503H17m262 81h66l54 81h2l54-81h66l-84 119h-75z" horiz-adv-x="801" unicode="ŵ"/><glyph d="M245 217h2s8-15 17-28L386 0h80L289 262l162 241h-80L263 334c-8-13-17-29-17-29h-1s-9 16-17 29L120 503H40l162-241L25 0h80l122 189c9 13 17 28 17 28z" horiz-adv-x="491" unicode="x"/><glyph d="M7-180s36-30 88-30c67 0 119 41 145 105l248 608h-74L269 136c-10-25-17-53-17-53h-2s-8 28-18 53L84 503H9L219 4l-31-71c-20-46-51-82-95-82-32 0-60 23-60 23z" horiz-adv-x="499" unicode="y"/><glyph d="M7-180s36-30 88-30c67 0 119 41 145 105l248 608h-74L269 136c-10-25-17-53-17-53h-2s-8 28-18 53L84 503H9L219 4l-31-71c-20-46-51-82-95-82-32 0-60 23-60 23m185 710h62l86 119h-79z" horiz-adv-x="499" unicode="ý"/><glyph d="M7-180s36-30 88-30c67 0 119 41 145 105l248 608h-74L269 136c-10-25-17-53-17-53h-2s-8 28-18 53L84 503H9L219 4l-31-71c-20-46-51-82-95-82-32 0-60 23-60 23m97 710h66l54 81h2l54-81h66l-84 119h-75z" horiz-adv-x="499" unicode="ŷ"/><glyph d="M7-180s36-30 88-30c67 0 119 41 145 105l248 608h-74L269 136c-10-25-17-53-17-53h-2s-8 28-18 53L84 503H9L219 4l-31-71c-20-46-51-82-95-82-32 0-60 23-60 23m263 743h62v86h-62m-151-86h61v86h-61z" horiz-adv-x="499" unicode="ÿ"/><glyph d="M103 350h135l28-48v-39H103v-52h163V0h70v211h160v52H336v39l27 48h133v51H391l176 302h-79L344 454c-23-40-43-90-43-90h-2s-20 50-43 90L113 703H34l175-302H103z" horiz-adv-x="601" unicode="¥"/><glyph d="M42 0h423v60H184c-33 0-51-2-51-2v2s22 22 41 46l281 352v45H54v-60h259c33 0 50 2 50 2v-2s-21-22-40-46L42 44z" horiz-adv-x="509" unicode="z"/><glyph d="M42 0h423v60H184c-33 0-51-2-51-2v2s22 22 41 46l281 352v45H54v-60h259c33 0 50 2 50 2v-2s-21-22-40-46L42 44m177 540h62l86 119h-79z" horiz-adv-x="509" unicode="ź"/><glyph d="M42 0h423v60H184c-33 0-51-2-51-2v2s22 22 41 46l281 352v45H54v-60h259c33 0 50 2 50 2v-2s-21-22-40-46L42 44m172 540h75l84 119h-66l-54-80h-2l-54 80h-66z" horiz-adv-x="509" unicode="ž"/><glyph d="M42 0h423v60H184c-33 0-51-2-51-2v2s22 22 41 46l281 352v45H54v-60h259c33 0 50 2 50 2v-2s-21-22-40-46L42 44m178 574h65v85h-65z" horiz-adv-x="509" unicode="ż"/><glyph d="M313-12c183 0 242 160 242 364 0 202-59 363-242 363S70 554 70 352c0-204 60-364 243-364m0 65c-134 0-171 131-171 299 0 167 37 298 171 298 133 0 170-131 170-298 0-168-37-299-170-299" horiz-adv-x="625" unicode="0"/><glyph d="M191-167c115 0 152 99 152 228 0 128-37 227-152 227S39 189 39 61c0-129 37-228 152-228m0 52c-75 0-96 77-96 176 0 98 21 175 96 175 74 0 96-77 96-175 0-99-22-176-96-176" horiz-adv-x="382" unicode="₀"/><glyph d="M191 413c115 0 152 99 152 228 0 128-37 227-152 227S39 769 39 641c0-129 37-228 152-228m0 52c-75 0-96 77-96 176 0 98 21 175 96 175 74 0 96-77 96-175 0-99-22-176-96-176" horiz-adv-x="382" unicode="⁰"/></font>
</svg>
